Results 1 to 6 of 6
  1. #1
    dR Rockers www.desirulez.net
    Join Date
    Aug 2011
    Posts
    5,859

    Cool EK Tha Tiger (2012) 1/3 DvDScr (Audio Cleaned) x264 800MB AC3 Team EXD

    Follow us on Social Media











    Code:
    Quote
     Source: - ICTV NTSC
    Ripper:- John
    
    Format       					: Matroska
    File size                    	: 811 MiB
    Duration     					: 2h 7mn
    Overall bit rate 				: 893 Kbps
    
    
    Video
    ID           					: 1
    Format       					: AVC
    Format/Info                  	: Advanced Video Codec
    Format profile   				: [email protected]
    Format settings, CABAC   		: Yes
    Format settings, ReFrames    	: 4 frames
    Format settings, GOP 			: M=1, N=2
    Muxing mode                  	: Header stripping
    Codec ID     					: V_MPEG4/ISO/AVC
    Duration     					: 2h 7mn
    Bit rate     					: 750 Kbps
    Width                        	: 720 pixels
    Height       					: 368 pixels
    Display aspect ratio 			: 1.957
    Frame rate mode              	: Variable
    Frame rate   					: 23.976 fps
    Color space                  	: YUV
    Chroma subsampling   			: 4:2:0
    Bit depth                    	: 8 bits
    Scan type                    	: Progressive
    Bits/(Pixel*Frame)   			: 0.118
    Stream size                  	: 679 MiB (84%)
    
    
    
    Audio
    ID           					: 2
    Format       					: AC-3
    Format/Info                  	: Audio Coding 3
    Mode extension   				: CM (complete main)
    Muxing mode                  	: Header stripping
    Codec ID     					: A_AC3
    Duration     					: 2h 7mn
    Bit rate mode                	: Constant
    Bit rate     					: 128 Kbps
    Channel(s)   					: 2 channels
    Channel positions            	: Front: L R
    Sampling rate                	: 48.0 KHz
    Bit depth                    	: 16 bits
    Compression mode 				: Lossy
    Stream size                  	: 116 MiB (14%)


















    Code:
    http://extabit.com/file/2dvmdzdox4ur2/EK Tha Tiger (2012) 1.3 MC DvDScr [Logo off] (Audio Cleaned) x264 AC3  Team EXD [John Rip].mkv

    Code:
    http://www.netload.in/dateiW2oKlJUznq/EK Tha Tiger (2012) 1.3 MC DvDScr [Logo off] (Audio Cleaned) x264 AC3 Team EXD [John Rip].mkv.htm

  2. #2
    dR Rockers www.desirulez.net
    Join Date
    Jan 2012
    Location
    In Your Hearts
    Posts
    47

    Default

    Thanks For Sharing...
    Do GooD
    HaVe GooD



  3. #3

    Default

    Good Quality...


  4. #4

    Default

    Good Jobbb...


  5. #5
    dR Rockers www.desirulez.net
    Join Date
    Jul 2012
    Posts
    31

    Default

    Keep IT Up....

  6. #6
    Aka Zafar JmD www.desirulez.net
    Join Date
    Aug 2010
    Location
    Sea Side
    Posts
    772

    Default

    Nice Quality...

 

 

Posting Permissions

  • You may not post new threads
  • You may not post replies
  • You may not post attachments
  • You may not edit your posts
  •