Results 1 to 1 of 1
  1. #1
    dR Rockers www.desirulez.net
    Join Date
    Aug 2011
    Posts
    5,859

    Cool Welcome to Sajjanpur (2008) - 720p - X264 - DVDRip - Ac3 5.1 - [ExD Exclusive]

    Follow us on Social Media
















    Code:
     
     Format                                   : Matroska Format version                           : Version 2 File size                                : 2.00 GiB Duration                                 : 2h 10mn Overall bit rate                         : 2 182 Kbps Movie name                               : Welcome to Sajjanpur (2008)720p.X264.DVDRip.Ac3.5.1.By [email protected] [ExD Exclusive] Encoded date                             : UTC 2012-08-13 18:30:37 
     
     Video
     
     Format                                   : AVC Format/Info                              : Advanced Video Codec Format profile                           : [email protected] Format settings, CABAC                   : Yes Format settings, ReFrames                : 4 frames Muxing mode                              : Header stripping Codec ID                                 : V_MPEG4/ISO/AVC Duration                                 : 2h 10mn Bit rate                                 : 1 733 Kbps Width                                    : 1 280 pixels Height                                   : 544 pixels Display aspect ratio                     : 2.35:1 Frame rate                               : 29.970 fps Color space                              : YUV Chroma subsampling                       : 4:2:0 Bit depth                                : 8 bits Scan type                                : Progressive Bits/(Pixel*Frame)                       : 0.083 Stream size                              : 1.55 GiB (77%) Title                                    : [email protected] Writing library                          : x264 core 125 r2200 999b753 
     
     Audio 1
     
     Format                                   : AC-3 Format/Info                              : Audio Coding 3 Mode extension                           : CM (complete main) Format settings, Endianness              : Big Muxing mode                              : Header stripping Codec ID                                 : A_AC3 Duration                                 : 2h 10mn Bit rate mode                            : Constant Bit rate                                 : 448 Kbps Channel(s)                               : 6 channels Channel positions                        : Front: L C R, Side: L R, LFE Sampling rate                            : 48.0 KHz Bit depth                                : 16 bits Compression mode                         : Lossy Stream size                              : 420 MiB (21%) Title                                    : [email protected] Language                                 : Hindi














    Code:
    http://extabit.com/file/2dvme34qibk83/Welcome to Sajjanpur (2008)720p.X264.DVDRip.Ac3.5.1.By [email protected] [ExD Exclusive].mkv
    http://extabit.com/file/2dvme34qdy5fn/Welcome to Sajjanpur (2008)720p.X264.DVDRip.Ac3.5.1.By [email protected] [ExD Exclusive].srt
    Code:
    http://www.netload.in/datei35rpnNLhpo/Welcome to Sajjanpur (2008)720p.X264.DVDRip.Ac3.5.1.By [email protected] [ExD Exclusive].mkv.htm
    http://www.netload.in/dateiOT0XShj4SR/Welcome to Sajjanpur (2008)720p.X264.DVDRip.Ac3.5.1.By [email protected] [ExD Exclusive].srt.htm

 

 

Posting Permissions

  • You may not post new threads
  • You may not post replies
  • You may not post attachments
  • You may not edit your posts
  •