Results 1 to 1 of 1
  1. #1
    dR Rockers www.desirulez.net
    Join Date
    Aug 2011
    Posts
    5,859

    Cool Ek Tha Tiger (2012) (Audio Cleaned) - 1.60GB - SCam - MPEG - PS

    Follow us on Social Media













    Code:
    General
          Format : MPEG-PS
          File size : 1.59 GiB
          Duration : 1h 43mn
          Overall bit rate : 2 196 Kbps
       Video #224
          ID : 224 (0xE0)
          Format : MPEG Video
          Format version : Version 2
          Format profile : [email protected] 1440
          Format settings, BVOP : Yes
          Format settings, Matrix : Custom
          Duration : 1h 43mn
          Bit rate mode : Constant
          Bit rate : 2 000 Kbps
          Width : 720 pixels
          Height : 576 pixels
          Display aspect ratio : 4:3
          Frame rate : 25.000 fps
          Standard : PAL
          Color space : YUV
          Chroma subsampling : 4:2:0
          Bit depth : 8 bits
          Scan type : Progressive
          Compression mode : Lossy
          Bits/(Pixel*Frame) : 0.193
          Stream size : 1.44 GiB (91%)
    
     Audio #192
          ID : 192 (0xC0)
          Format : MPEG Audio
          Format version : Version 1
          Format profile : Layer 2
          Duration : 1h 43mn
          Bit rate mode : Constant
          Bit rate : 160 Kbps
          Channel(s) : 2 channels
          Sampling rate : 48.0 KHz
          Compression mode : Lossy
          Stream size : 119 MiB (7%)




    Code:
    http://extabit.com/file/2dvme2upsprjf/'Ek Tha Tiger'(Audio Cleaned)- SCam Rip - MPEG-PS.mpg
    Code:
    http://www.netload.in/dateiSWIZ6w87ej/'Ek Tha Tiger'(Audio Cleaned)- SCam Rip - MPEG-PS.mpg.htm

 

 

Posting Permissions

  • You may not post new threads
  • You may not post replies
  • You may not post attachments
  • You may not edit your posts
  •