Results 1 to 1 of 1
  1. #1

    Default Ek Tha Tiger'(Audio Cleaned) SCam Rip MPEG PS

    Follow us on Social Media








    Ek Tha Tiger'(Audio Cleaned)- SCam Rip - MPEG-PS





    Code:
    General
    Format : MPEG-PS
    File size : 1.59 GiB
    Duration : 1h 43mn
    Overall bit rate : 2 196 Kbps
    Video #224
    ID : 224 (0xE0)
    Format : MPEG Video
    Format version : Version 2
    Format profile : [email protected] 1440
    Format settings, BVOP : Yes
    Format settings, Matrix : Custom
    Duration : 1h 43mn
    Bit rate mode : Constant
    Bit rate : 2 000 Kbps
    Width : 720 pixels
    Height : 576 pixels
    Display aspect ratio : 4:3
    Frame rate : 25.000 fps
    Standard : PAL
    Color space : YUV
    Chroma subsampling : 4:2:0
    Bit depth : 8 bits
    Scan type : Progressive
    Compression mode : Lossy
    Bits/(Pixel*Frame) : 0.193
    Stream size : 1.44 GiB (91%)
    
    Audio #192
    ID : 192 (0xC0)
    Format : MPEG Audio
    Format version : Version 1
    Format profile : Layer 2
    Duration : 1h 43mn
    Bit rate mode : Constant
    Bit rate : 160 Kbps
    Channel(s) : 2 channels
    Sampling rate : 48.0 KHz
    Compression mode : Lossy
    Stream size : 119 MiB (7%)






    Code:
    SHARPFILE
    http://www.sharpfile.com/4fjv3wyqm2/356ETT_MPEG-PS.part1.rar.html
    http://www.sharpfile.com/zf6vmgqrd4/356ETT_MPEG-PS.part2.rar.html
    
    TURBOBIT
    http://turbobit.net/3hp5c2wc7v1x/356ETT MPEG-PS.part1.rar.html
    http://turbobit.net/vyfll4znku7f/356ETT MPEG-PS.part2.rar.html
    
    FILEMATES
    http://filemates.com/pzx12ql5pl5f/356ETT_MPEG-PS.mpg
    
    LETITBIT
    http://letitbit.net/download/50014.53e626b330542921b2fe0a937248/356ETT_MPEG-PS.part1.rar.html
    http://letitbit.net/download/88240.8a411dd06938aab883d51ffec55a/356ETT_MPEG-PS.part2.rar.html
    
    UPLOADED
    http://uploaded.net/file/nkjzxery/356ETT%20MPEG-PS.part1.rar
    http://uploaded.net/file/z3jwzdic/356ETT%20MPEG-PS.part2.rar
    
    RAPIDGATOR
    http://rapidgator.net/file/32976554/356ETT_MPEG-PS.part1.rar.html
    http://rapidgator.net/file/32976593/356ETT_MPEG-PS.part2.rar.html

 

 

Posting Permissions

  • You may not post new threads
  • You may not post replies
  • You may not post attachments
  • You may not edit your posts
  •