Results 1 to 1 of 1
  1. #1

    Default Ek Tha Tiger [2012] SCAMRIP MPEG EXDT EXCLUSIVE

    Follow us on Social Media








    Ek Tha Tiger [2012] SCAMRIP - MPEG - EXDT EXCLUSIVE





    Code:
    Format                                   : MPEG-PS
    File size                                : 844 MiB
    Duration                                 : 1h 43mn
    Overall bit rate mode                    : Variable
    Overall bit rate                         : 1 136 Kbps
    
    Video
    ID                                       : 224 (0xE0)
    Format                                   : MPEG Video
    Format version                           : Version 2
    Format profile                           : [email protected]
    Format settings, BVOP                    : Yes
    Format settings, Matrix                  : Default
    Duration                                 : 1h 43mn
    Bit rate mode                            : Variable
    Bit rate                                 : 986 Kbps
    Maximum bit rate                         : 9 672 Kbps
    Width                                    : 352 pixels
    Height                                   : 288 pixels
    Display aspect ratio                     : 4:3
    Frame rate                               : 25.000 fps
    Standard                                 : PAL
    Color space                              : YUV
    Chroma subsampling                       : 4:2:0
    Bit depth                                : 8 bits
    Scan type                                : Progressive
    Compression mode                         : Lossy
    Bits/(Pixel*Frame)                       : 0.389
    Stream size                              : 732 MiB (87%)
    
    Audio
    ID                                       : 192 (0xC0)
    Format                                   : MPEG Audio
    Format version                           : Version 1
    Format profile                           : Layer 2
    Duration                                 : 1h 43mn
    Bit rate mode                            : Constant
    Bit rate                                 : 128 Kbps
    Channel(s)                               : 2 channels
    Sampling rate                            : 48.0 KHz
    Compression mode                         : Lossy
    Stream size                              : 95.0 MiB (11%)







    Code:
    SHARPFILE
    http://www.sharpfile.com/37bwc9jpzx/324ETT_[2012].VOB.html
    
    NETLOAD
    http://www.netload.in/dateiA2kmastADl/324ETT [2012].VOB.htm
    
    TURBOBIT
    http://turbobit.net/fhux3tdou0iu/324ETT [2012].VOB.html
    
    FILEMATES
    http://filemates.com/nzpisw71reag/324ETT__2012_.VOB
    
    LETITBIT
    http://letitbit.net/download/23363.2ff24ed863946223c4fad5993048/324ETT__2012_.VOB.html
    
    UPLOADED
    http://uploaded.net/file/m36ogylk/324ETT%20%5B2012%5D.VOB
    
    RAPIDGATOR
    http://rapidgator.net/file/32970567/324ETT_[2012].VOB.html

 

 

Posting Permissions

  • You may not post new threads
  • You may not post replies
  • You may not post attachments
  • You may not edit your posts
  •