Results 1 to 1 of 1
  1. #1
    Hot Member www.desirulez.net
    Join Date
    Sep 2009
    Posts
    1,215

    Thumbs up Ek Tha Tiger [2012] 1CD - HD SCAM RIP - Audio Cleaned - XVID - MP3 [-=ExDKING=-] ExDT

    Follow us on Social Media






    Code:
    Format                                   : AVI
    Format/Info                              : Audio Video Interleave
    File size                                : 701 MiB
    Duration                                 : 1h 43mn
    Overall bit rate                         : 945 Kbps
    
    Video
    ID                                       : 0
    Format                                   : MPEG-4 Visual
    Format profile                           : Advanced [email protected]
    Format settings, BVOP                    : 2
    Format settings, QPel                    : No
    Format settings, GMC                     : No warppoints
    Format settings, Matrix                  : Default (H.263)
    Codec ID                                 : XVID
    Codec ID/Hint                            : XviD
    Duration                                 : 1h 43mn
    Bit rate                                 : 811 Kbps
    Width                                    : 608 pixels
    Height                                   : 256 pixels
    Display aspect ratio                     : 2.40:1
    Frame rate                               : 25.000 fps
    Color space                              : YUV
    Chroma subsampling                       : 4:2:0
    Bit depth                                : 8 bits
    Scan type                                : Progressive
    Compression mode                         : Lossy
    Bits/(Pixel*Frame)                       : 0.208
    Stream size                              : 602 MiB (86%)
    Writing library                          : XviD 1.2.1 (UTC 2008-12-04)
    
    Audio
    ID                                       : 1
    Format                                   : MPEG Audio
    Format version                           : Version 1
    Format profile                           : Layer 3
    Mode                                     : Joint stereo
    Mode extension                           : MS Stereo
    Codec ID                                 : 55
    Codec ID/Hint                            : MP3
    Duration                                 : 1h 43mn
    Bit rate mode                            : Constant
    Bit rate                                 : 128 Kbps
    Channel(s)                               : 2 channels
    Sampling rate                            : 48.0 KHz
    Compression mode                         : Lossy
    Stream size                              : 95.0 MiB (14%)
    Alignment                                : Aligned on interleaves
    Interleave, duration                     : 160 ms (4.00 video frames)
    Interleave, preload duration             : 216 ms
    Title                                    : ******.com
    Writing library                          : LAME3.99r
    Encoding settings                        : -m j -V 4 -q 2 -lowpass 17 -b 128











    Code:
    http://turbobit.net/5487wqg20ga2/Ek Tha Tiger [2012].avi.html
    
    http://rapidgator.net/file/32972715/Ek_Tha_Tiger_[2012].avi.html
    
    http://www.sharpfile.com/z9yrvkjq/Ek_Tha_Tiger_[2012].avi.html
    
    http://ul.to/g9xoao57





 

 

Posting Permissions

  • You may not post new threads
  • You may not post replies
  • You may not post attachments
  • You may not edit your posts
  •