Loading...
Results 1 to 1 of 1
  1. #1
    Landed To DesiRulez www.desirulez.net
    Join Date
    Jul 2012
    Location
    desirulez.net
    Posts
    17

    Default WWE Friday Night Smackdown 2012.08.03 HDTV x264-C4TV

    Follow us on Social Media





    WWE Friday Night Smackdown 2012.08.03 HDTV x264-C4TV






    Screens:-







    Info:-

    Code:
    http://www.tv.com/show/3316/summary.html
    
    http://www.wwe.com/shows/smackdown/smackdownmoving/
    
    General
    Format profile                           : Base Media / Version 2
    Codec ID                                 : mp42
    File size                                : 930 MiB
    Duration                                 : 1h 34mn
    Overall bit rate mode                    : Variable
    Overall bit rate                         : 1 375 Kbps
    Encoded date                             : UTC 2012-08-03 00:09:12
    Tagged date                              : UTC 2012-08-03 00:09:12
    
    Video
    ID                                       : 201
    Format                                   : AVC
    Format/Info                              : Advanced Video Codec
    Format profile                           : [email protected]
    Format settings, CABAC                   : Yes
    Format settings, ReFrames                : 5 frames
    Codec ID                                 : avc1
    Codec ID/Info                            : Advanced Video Coding
    Duration                                 : 1h 34mn
    Bit rate                                 : 1 239 Kbps
    Maximum bit rate                         : 4 398 Kbps
    Width                                    : 720 pixels
    Height                                   : 404 pixels
    Display aspect ratio                     : 16:9
    Frame rate mode                          : Constant
    Frame rate                               : 25.000 fps
    Color space                              : YUV
    Chroma subsampling                       : 4:2:0
    Bit depth                                : 8 bits
    Scan type                                : Progressive
    Bits/(Pixel*Frame)                       : 0.170
    Stream size                              : 838 MiB (90%)
    Encoded date                             : UTC 2012-08-03 00:09:13
    Tagged date                              : UTC 2012-08-03 00:09:33
    
    Audio
    ID                                       : 101
    Format                                   : AAC
    Format/Info                              : Advanced Audio Codec
    Format profile                           : LC
    Codec ID                                 : 40
    Duration                                 : 1h 34mn
    Bit rate mode                            : Variable
    Bit rate                                 : 136 Kbps
    Maximum bit rate                         : 169 Kbps
    Channel(s)                               : 2 channels
    Channel positions                        : Front: L R
    Sampling rate                            : 48.0 KHz
    Compression mode                         : Lossy
    Stream size                              : 89.5 MiB (10%)
    Encoded date                             : UTC 2012-08-03 00:09:12
    Tagged date                              : UTC 2012-08-03 00:09:33





    download:-

    Code:
    http://filegag.com/tv6sh9pvrns6
    
    http://filevelocity.com/xpgmbw5a1fo3/wwe.friday.night.smackdown.2012.08.03.hdtv.x264-c4tv.cw.dd.mp4
    
    http://rapidgator.net/file/29820813/wwe.friday.night.smackdown.2012.08.03.hdtv.x264-c4tv.cw.dd.mp4.html
    
    http://ul.to/kwkx3ssk/wwe.friday.night.smackdown.2012.08.03.hdtv.x264-c4tv.cw.dd.mp4
    
    http://uploadjet.net/wdwfewqcv1ml/wwe.friday.night.smackdown.2012.08.03.hdtv.x264-c4tv.cw.dd.mp4.htm
    
    http://hitfile.net/eOlv/wwe.friday.night.smackdown.2012.08.03.hdtv.x264-c4tv.cw.dd.mp4.html
    
    http://turbobit.net/g0z9wj2221hs.html
    
    http://freakshare.com/files/nx72hmvt/wwe.friday.night.smackdown.2012.08.03.hdtv.x264-c4tv.cw.dd.mp4.html
    
    http://netload.in/dateic6UuLIgxA1/wwe.friday.night.smackdown.2012.08.03.hdtv.x264-c4tv.cw.dd.mp4.htm
    
    https://rapidshare.com/files/3823428005/wwe.friday.night.smackdown.2012.08.03.hdtv.x264-c4tv.cw.dd.mp4
    I am the Best single Link Uploader Ever uploaded Anything On net.

    Regards.
    BE - Best Ever !

 

 

Posting Permissions

  • You may not post new threads
  • You may not post replies
  • You may not post attachments
  • You may not edit your posts
  •