Results 1 to 1 of 1
  1. #1
    Super Member www.desirulez.net
    Join Date
    Jan 2012
    Posts
    408

    Thumbs up Jism-2(2012)Audio Cleaned - 1CD-Scam Rip MPG - Team ICTv

    Follow us on Social Media







    Code:
    Sunny Leone as Izna
    Randeep Hooda as Kabir
    Arunoday Singh as Ayaan
    Imran Zahid
    Mohan Agashe
    Arif Zakaria
    
    General
    Format : MPEG-PS
    File size : 685 MiB
    Duration : 1h 57mn
    Overall bit rate : 815 Kbps
    Video #224
    ID : 224 (0xE0)
    Format : MPEG Video
    Format version : Version 2
    Format settings, BVOP : Yes
    Format settings, Matrix : Custom
    Duration : 1h 57mn
    Bit rate mode : Constant
    Bit rate : 735 Kbps
    Nominal bit rate : 1 150 Kbps
    Width : 352 pixels
    Height : 288 pixels
    Display aspect ratio : 1.222
    Frame rate : 25.000 fps
    Standard : PAL
    Color space : YUV
    Bit depth : 8 bits
    Scan type : Progressive
    Compression mode : Lossy
    Bits/(Pixel*Frame) : 0.290
    Stream size : 617 MiB (90%)
    
    Audio #192
    ID : 192 (0xC0)
    Format : MPEG Audio
    Format version : Version 1
    Format profile : Layer 2
    Duration : 1h 57mn
    Bit rate mode : Constant
    Bit rate : 64.0 Kbps
    Channel(s) : 2 channels
    Sampling rate : 48.0 KHz
    Compression mode : Lossy
    Stream size : 53.8 MiB (8%)




    Code:
    http://sharpfile.com/4wwarezn2uiv/664545.mpg.html
    
    http://freakshare.com/files/tsuoi0f9/664545.mpg.html
    
    http://www.queenshare.com/gap3swdacwmx
    
    http://turbobit.net/6l42q7tpvg10.html

 

 

Posting Permissions

  • You may not post new threads
  • You may not post replies
  • You may not post attachments
  • You may not edit your posts
  •