Results 1 to 1 of 1
  1. #1
    Coolbie www.desirulez.net
    Join Date
    Nov 2011
    Location
    Hyderabad
    Posts
    722

    Default 3 Bachelors (2012) - DVDRip - Watch Online / Download x264 - AC3 5.1

    Follow us on Social Media





    Watch 3 Bachelors (2012) Full Movie Online | Download 3 Bachelors (2012) Full Movie Free | 3 Bachelors (2012) DVD Rip | Torrent Download



    Rip Information
    Code:
    Format                                   : Matroska
    Format version                           : Version 2
    File size                                : 762 MiB
    Duration                                 : 1h 49mn
    Overall bit rate                         : 970 Kbps
    Movie name                               : 3 Bachelors (2012) - DVDRip - 1CD - x264 - AC3 5.1 - E.Subs - [ExD Exclusive]
    Encoded date                             : UTC 2012-07-30 15:06:19
    Video
    Code:
    Format                                   : AVC
    Format/Info                              : Advanced Video Codec
    Format profile                           : [email protected]
    Format settings, CABAC                   : Yes
    Format settings, ReFrames                : 4 frames
    Muxing mode                              : Header stripping
    Codec ID                                 : V_MPEG4/ISO/AVC
    Duration                                 : 1h 49mn
    Bit rate                                 : 841 Kbps
    Width                                    : 720 pixels
    Height                                   : 304 pixels
    Display aspect ratio                     : 2.35:1
    Frame rate                               : 29.970 fps
    Color space                              : YUV
    Chroma subsampling                       : 4:2:0
    Bit depth                                : 8 bits
    Scan type                                : Progressive
    Bits/(Pixel*Frame)                       : 0.128
    Stream size                              : 646 MiB (85%)
    Title                                    : [email protected]
    Writing library                          : x264 core 125 r2200 999b753
    Audio
    Code:
    Format                                   : AC-3
    Format/Info                              : Audio Coding 3
    Mode extension                           : CM (complete main)
    Format settings, Endianness              : Big
    Muxing mode                              : Header stripping
    Codec ID                                 : A_AC3
    Duration                                 : 1h 49mn
    Bit rate mode                            : Constant
    Bit rate                                 : 128 Kbps
    Channel(s)                               : 6 channels
    Channel positions                        : Front: L C R, Side: L R, LFE
    Sampling rate                            : 48.0 KHz
    Bit depth                                : 16 bits
    Compression mode                         : Lossy
    Stream size                              : 101 MiB (13%)
    Title                                    : [email protected]
    Language                                 : Hindi










    All Credits Goes To [email protected] @ Team ExD (Thanks)

    File Size: 762.22 MB

    Watch Online And Download (Flash)
    Watch Online And Download (Divx)

    Code:
    http://www.vidpe.com/g2ynvmjkg7hh.html
    Code:
    http://muchshare.net/9g3to5syzwvp
    Please add reputation points if you like the post. This encourages us. Simply click star mark on left of this post then ADD to Reputation, thats it

 

 

Tags for this Thread

Posting Permissions

  • You may not post new threads
  • You may not post replies
  • You may not post attachments
  • You may not edit your posts
  •