Results 1 to 1 of 1
  1. #1
    Hot Member www.desirulez.net
    Join Date
    Sep 2009
    Posts
    1,215

    Thumbs up 3 Bachelors (2012)-DVDRip - x264 - E.Subs - 5.1-By [email protected] [ExD Exclusive]

    Follow us on Social Media

















    Code:
    Format                                   : Matroska
    Format version                           : Version 2
    File size                                : 762 MiB
    Duration                                 : 1h 49mn
    Overall bit rate                         : 970 Kbps
    Movie name                               : 3 Bachelors (2012)-DVDRip - x264 - E.Subs - 5.1-By [email protected] [ExD Exclusive]
    Encoded date                             : UTC 2012-07-30 15:06:19
    Code:
    Format                                   : AVC
    Format/Info                              : Advanced Video Codec
    Format profile                           : [email protected]
    Format settings, CABAC                   : Yes
    Format settings, ReFrames                : 4 frames
    Muxing mode                              : Header stripping
    Codec ID                                 : V_MPEG4/ISO/AVC
    Duration                                 : 1h 49mn
    Bit rate                                 : 841 Kbps
    Width                                    : 720 pixels
    Height                                   : 304 pixels
    Display aspect ratio                     : 2.35:1
    Frame rate                               : 29.970 fps
    Color space                              : YUV
    Chroma subsampling                       : 4:2:0
    Bit depth                                : 8 bits
    Scan type                                : Progressive
    Bits/(Pixel*Frame)                       : 0.128
    Stream size                              : 646 MiB (85%)
    Title                                    : [email protected]
    Writing library                          : x264 core 125 r2200 999b753
    Code:
    Format                                   : AC-3
    Format/Info                              : Audio Coding 3
    Mode extension                           : CM (complete main)
    Format settings, Endianness              : Big
    Muxing mode                              : Header stripping
    Codec ID                                 : A_AC3
    Duration                                 : 1h 49mn
    Bit rate mode                            : Constant
    Bit rate                                 : 128 Kbps
    Channel(s)                               : 6 channels
    Channel positions                        : Front: L C R, Side: L R, LFE
    Sampling rate                            : 48.0 KHz
    Bit depth                                : 16 bits
    Compression mode                         : Lossy
    Stream size                              : 101 MiB (13%)
    Title                                    : [email protected]
    Language                                 : Hindi
    Code:
    http://turbobit.net/mwrm9l7hovdt/3 Bachelors (2012)-DVDRip - x264 - E.Subs - 5.1-By [email protected] [ExD Exclusive].mkv.html
    
    http://ul.to/jwq6hbxv
    
    http://www.filefactory.com/file/77wxpxzyl2yx/n/3_Bachelors_2012_-DVDRip_-_x264_-_E_Subs_-_5_1-By_K_rtik_ExD_Exclusive_mkv





 

 

Posting Permissions

  • You may not post new threads
  • You may not post replies
  • You may not post attachments
  • You may not edit your posts
  •