Results 1 to 1 of 1
  1. #1
    Hot Member www.desirulez.net
    Join Date
    Sep 2009
    Posts
    1,215

    Thumbs up The Train (2007) 1CD DVD Rip E-Sub MP3 Team DST

    Follow us on Social Media








    Code:
    Format                                   : AVI
    Format/Info                              : Audio Video Interleave
    Format profile                           : OpenDML
    Format settings                          : rec
    File size                                : 691 MiB
    Duration                                 : 2h 14mn
    Overall bit rate mode                    : Variable
    Overall bit rate                         : 719 Kbps
    Writing application                      : AVI-Mux GUI 1.17.8.3, Feb 16 201019:42:50
    
    Video
    ID                                       : 0
    Format                                   : MPEG-4 Visual
    Format profile                           : Advanced [email protected]
    Format settings, BVOP                    : 4
    Format settings, QPel                    : No
    Format settings, GMC                     : No warppoints
    Format settings, Matrix                  : Default (H.263)
    Codec ID                                 : XVID
    Codec ID/Hint                            : XviD
    Duration                                 : 2h 14mn
    Bit rate                                 : 649 Kbps
    Width                                    : 640 pixels
    Height                                   : 288 pixels
    Display aspect ratio                     : 2.222
    Frame rate                               : 23.976 fps
    Color space                              : YUV
    Chroma subsampling                       : 4:2:0
    Bit depth                                : 8 bits
    Scan type                                : Progressive
    Compression mode                         : Lossy
    Bits/(Pixel*Frame)                       : 0.147
    Stream size                              : 624 MiB (90%)
    Writing library                          : XviD 1.2.1 (UTC 2008-12-04)
    
    Audio
    ID                                       : 1
    Format                                   : MPEG Audio
    Format version                           : Version 1
    Format profile                           : Layer 3
    Codec ID                                 : 55
    Codec ID/Hint                            : MP3
    Duration                                 : 2h 14mn
    Bit rate mode                            : Variable
    Bit rate                                 : 60.9 Kbps
    Nominal bit rate                         : 64.0 Kbps
    Channel(s)                               : 1 channel
    Sampling rate                            : 48.0 KHz
    Compression mode                         : Lossy
    Stream size                              : 58.6 MiB (8%)
    Alignment                                : Aligned on interleaves
    Interleave, duration                     : 24 ms (0.58 video frame)
    Interleave, preload duration             : 141 ms
    Title                                    : VTS_02_1 T80 3_2ch 448Kbps DELAY 0ms_new
    Writing library                          : LAME3.99r
    Encoding settings                        : -m m -V 4 -q 2 -lowpass 16.5 --abr 64













    Code:
    http://turbobit.net/8e6ed0yoen08/The Train (2007) 1CD DVD Rip E-Sub MP3 Team DST.avi.html
    
    http://www.filefactory.com/file/22vskcrv7n7v/n/The_Train_2007_1CD_DVD_Rip_E-Sub_MP3_Team_DST_avi
    
    http://ul.to/g6iwob7n





 

 

Posting Permissions

  • You may not post new threads
  • You may not post replies
  • You may not post attachments
  • You may not edit your posts
  •