Results 1 to 1 of 1
  1. #1
    dR Rockers www.desirulez.net
    Join Date
    Aug 2011
    Posts
    5,859

    Cool Jaane Kahan Se Aayi Hai (2010) - DTHRip - 720p - x264 - [Team QMR]

    Follow us on Social Media








    ~ TEAM QMR ~ General Complete name : Jaane Kahan Se Aayi Hai (2010) - DTHRip - 720p - x264 - [Team QMR] - deep1007.mkv Format : Matroska Format version : Version 1 File size : 1.31 GiB Duration : 1h 55mn Overall bit rate : 1 631 Kbps Encoded date : UTC 2012-05-30 09:53:11 Writing application : mkvmerge v2.2.0 Writing library : libebml v0.7.7 + libmatroska v0.8.1 Video ID : 1 Format : AVC Format/Info : Advanced Video Codec Format profile : [email protected] Format settings, CABAC : Yes Format settings, ReFrames : 5 frames Codec ID : V_MPEG4/ISO/AVC Duration : 1h 55mn Bit rate : 1 500 Kbps Width : 1 280 pixels Height : 544 pixels Display aspect ratio : 2.35:1 Frame rate : 25.000 fps Color space : YUV Chroma subsampling : 4:2:0 Bit depth : 8 bits Scan type : Progressive Bits/(Pixel*Frame) : 0.086 Stream size : 1.18 GiB (90%) Writing library : x264 core 120 Language : English Default : Yes Forced : No Color primaries : BT.709-5, BT.1361, IEC 61966-2-4, SMPTE RP177 Transfer characteristics : BT.709-5, BT.1361 Matrix coefficients : BT.709-5, BT.1361, IEC 61966-2-4 709, SMPTE RP177 Audio ID : 2 Format : AC-3 Format/Info : Audio Coding 3 Mode extension : CM (complete main) Format settings, Endianness : Big Codec ID : A_AC3 Duration : 1h 55mn Bit rate mode : Constant Bit rate : 128 Kbps Channel(s) : 2 channels Channel positions : Front: L R Sampling rate : 48.0 KHz Bit depth : 16 bits Compression mode : Lossy Stream size : 105 MiB (8%) Default : Yes Forced : No
















    Code:
    http://extabit.com/file/2dvlvchgb42bu/Jaane Kahan Se Aayi Hai (2010) - DTHRip - 720p - x264 - [Team QMR] - deep1007.mkv
    Code:
    http://www.netload.in/dateiIQf9UEDVWJ/Jaane Kahan Se Aayi Hai (2010) - DTHRip - 720p - x264 - [Team QMR] - deep1007.mkv.htm

 

 

Posting Permissions

  • You may not post new threads
  • You may not post replies
  • You may not post attachments
  • You may not edit your posts
  •