Results 1 to 1 of 1
  1. #1
    Landed To DesiRulez www.desirulez.net
    Join Date
    Jul 2012
    Location
    desirulez.net
    Posts
    17

    Default WWE Friday Night Smackdown International 2012 07 27 PDTV XviD-Ebi

    Follow us on Social Media





    WWE Friday Night Smackdown International 2012 07 27 PDTV XviD-Ebi







    Screens:-







    Info:-

    Code:
    General
    Format                                   : AVI
    Format/Info                              : Audio Video Interleave
    File size                                : 436 MiB
    Duration                                 : 42mn 58s
    Overall bit rate                         : 1 420 Kbps
    
    Video
    ID                                       : 0
    Format                                   : MPEG-4 Visual
    Format profile                           : Advanced [email protected]
    Format settings, BVOP                    : 2
    Format settings, QPel                    : No
    Format settings, GMC                     : No warppoints
    Format settings, Matrix                  : Default (H.263)
    Codec ID                                 : XVID
    Codec ID/Hint                            : XviD
    Duration                                 : 42mn 58s
    Bit rate                                 : 1 278 Kbps
    Width                                    : 624 pixels
    Height                                   : 352 pixels
    Display aspect ratio                     : 16:9
    Frame rate                               : 29.970 fps
    Color space                              : YUV
    Chroma subsampling                       : 4:2:0
    Bit depth                                : 8 bits
    Scan type                                : Progressive
    Compression mode                         : Lossy
    Bits/(Pixel*Frame)                       : 0.194
    Stream size                              : 393 MiB (90%)
    Writing library                          : XviD 64
    
    Audio
    ID                                       : 1
    Format                                   : MPEG Audio
    Format version                           : Version 1
    Format profile                           : Layer 3
    Codec ID                                 : 55
    Codec ID/Hint                            : MP3
    Duration                                 : 42mn 57s
    Source duration                          : 42mn 58s
    Bit rate mode                            : Constant
    Bit rate                                 : 128 Kbps
    Channel(s)                               : 2 channels
    Sampling rate                            : 48.0 KHz
    Compression mode                         : Lossy
    Stream size                              : 39.3 MiB (9%)
    Alignment                                : Split accross interleaves
    Interleave, duration                     : 24 ms (0.72 video frame)




    Download:-

    Code:
    http://filegag.com/b9ik9vig8tfs/WWE.Friday.Night.Smackdown.International.2012.07.27.PDTV.XviD-Ebi.avi
    
    http://freakshare.com/files/uuiovbll/WWE.Friday.Night.Smackdown.International.2012.07.27.PDTV.XviD-Ebi.avi.html
    
    http://rapidgator.net/file/28270810/WWE.Friday.Night.Smackdown.International.2012.07.27.PDTV.XviD-Ebi.avi.html
    
    http://ul.to/19b1urld/WWE.Friday.Night.Smackdown.International.2012.07.27.PDTV.XviD-Ebi.avi
    
    http://uploadjet.net/e8h4z4ly7zud/WWE.Friday.Night.Smackdown.International.2012.07.27.PDTV.XviD-Ebi.avi.htm
    
    http://hitfile.net/Pbmd/WWE.Friday.Night.Smackdown.International.2012.07.27.PDTV.XviD-Ebi.avi.html
    
    http://turbobit.net/twm466ajwxtj/WWE.Friday.Night.Smackdown.International.2012.07.27.PDTV.XviD-Ebi.avi.html
    
    https://rapidshare.com/files/3101804323/WWE.Friday.Night.Smackdown.International.2012.07.27.PDTV.XviD-Ebi.avi
    
    http://netload.in/datei0E8aky6tvn/WWE.Friday.Night.Smackdown.International.2012.07.27.PDTV.XviD-Ebi.avi.htm
    I am the Best single Link Uploader Ever uploaded Anything On net.

    Regards.
    BE - Best Ever !

 

 

Posting Permissions

  • You may not post new threads
  • You may not post replies
  • You may not post attachments
  • You may not edit your posts
  •