Results 1 to 1 of 1
  1. #1
    Hot Member www.desirulez.net
    Join Date
    Sep 2009
    Posts
    1,215

    Thumbs up Kyaa Super Kool Hain Hum (2012) Scam [EXDT Exclusive]

    Follow us on Social Media








    Code:
    General
    Complete name                            : C:\CAM\Kyaa Super Cool Hain Hum.MPG
    Format                                   : MPEG-PS
    File size                                : 774 MiB
    Duration                                 : 2h 6mn
    Overall bit rate mode                    : Variable
    Overall bit rate                         : 855 Kbps
    
    Video
    ID                                       : 224 (0xE0)
    Format                                   : MPEG Video
    Format version                           : Version 2
    Format profile                           : [email protected]
    Format settings, BVOP                    : Yes
    Format settings, Matrix                  : Default
    Format settings, GOP                     : M=3, N=12
    Duration                                 : 2h 6mn
    Bit rate mode                            : Variable
    Bit rate                                 : 710 Kbps
    Maximum bit rate                         : 700 Kbps
    Width                                    : 352 pixels
    Height                                   : 288 pixels
    Display aspect ratio                     : 4:3
    Frame rate                               : 25.000 fps
    Standard                                 : PAL
    Color space                              : YUV
    Chroma subsampling                       : 4:2:0
    Bit depth                                : 8 bits
    Scan type                                : Progressive
    Compression mode                         : Lossy
    Bits/(Pixel*Frame)                       : 0.280
    Stream size                              : 642 MiB (83%)
    
    Audio
    ID                                       : 192 (0xC0)
    Format                                   : MPEG Audio
    Format version                           : Version 1
    Format profile                           : Layer 2
    Duration                                 : 2h 6mn
    Bit rate mode                            : Constant
    Bit rate                                 : 128 Kbps
    Channel(s)                               : 2 channels
    Sampling rate                            : 44.1 KHz
    Compression mode                         : Lossy
    Stream size                              : 116 MiB (15%)






    Code:
    http://www.filefactory.com/file/2menhsal45cd/n/Kyaa_Super_Cool_Hain_Hum_MPG
    
    http://rapidgator.net/file/28091012/Kyaa_Super_Cool_Hain_Hum.MPG.html
    
    http://www.filefat.com/vmeevahz72ip





 

 

Posting Permissions

  • You may not post new threads
  • You may not post replies
  • You may not post attachments
  • You may not edit your posts
  •