Results 1 to 1 of 1
  1. #1
    dR Rockers www.desirulez.net
    Join Date
    Aug 2011
    Posts
    5,859

    Cool Rowdy Rathore (2012) - 720p - DVDRip - X264 - AC3 - Sub - BWTV

    Follow us on Social Media












    Code:
    General
    Complete name                            : C:\Users\root\Downloads\Rowdy Rathore (2012) 720P DVD Rip X264 AC3 Sub BWTV\Rowdy Rathore (2012) 720P DVD Rip X264 AC3 Sub BWTV.mkv
    Format                                   : Matroska
    Format version                           : Version 2
    File size                                : 3.00 GiB
    Duration                                 : 2h 23mn
    Overall bit rate                         : 2 985 Kbps
    Encoded date                             : UTC 2012-07-25 02:25:57
    Writing application                      : mkvmerge v5.6.0 ('Kenya Kane') built on May 27 2012 16:44:04
    Writing library                          : libebml v1.2.3 + libmatroska v1.3.0
    
    Video
    ID                                       : 1
    Format                                   : AVC
    Format/Info                              : Advanced Video Codec
    Format profile                           : [email protected]
    Format settings, CABAC                   : Yes
    Format settings, ReFrames                : 4 frames
    Codec ID                                 : V_MPEG4/ISO/AVC
    Duration                                 : 2h 23mn
    Bit rate                                 : 2 536 Kbps
    Width                                    : 1 280 pixels
    Height                                   : 544 pixels
    Display aspect ratio                     : 2.35:1
    Frame rate                               : 23.976 fps
    Color space                              : YUV
    Chroma subsampling                       : 4:2:0
    Bit depth                                : 8 bits
    Scan type                                : Progressive
    Bits/(Pixel*Frame)                       : 0.152
    Stream size                              : 2.49 GiB (83%)
    Writing library                          : x264 core 125 r2200 999b753
    Encoding settings                        : cabac=1 / ref=3 / deblock=1:0:0 / analyse=0x3:0x111 / me=hex / subme=7 / psy=1 / psy_rd=1.00:0.00 / mixed_ref=1 / me_range=16 / chroma_me=1 / trellis=1 / 8x8dct=1 / cqm=0 / deadzone=21,11 / fast_pskip=1 / chroma_qp_offset=-2 / threads=12 / lookahead_threads=2 / sliced_threads=0 / nr=0 / decimate=1 / interlaced=0 / bluray_compat=0 / constrained_intra=0 / bframes=3 / b_pyramid=2 / b_adapt=1 / b_bias=0 / direct=1 / weightb=1 / open_gop=0 / weightp=2 / keyint=240 / keyint_min=23 / scenecut=40 / intra_refresh=0 / rc_lookahead=40 / rc=2pass / mbtree=1 / bitrate=2536 / ratetol=1.0 / qcomp=0.60 / qpmin=0 / qpmax=69 / qpstep=4 / cplxblur=20.0 / qblur=0.5 / ip_ratio=1.40 / aq=1:1.00
    Language                                 : English
    Default                                  : Yes
    Forced                                   : No
    
    Audio
    ID                                       : 2
    Format                                   : AC-3
    Format/Info                              : Audio Coding 3
    Mode extension                           : CM (complete main)
    Codec ID                                 : A_AC3
    Duration                                 : 2h 23mn
    Bit rate mode                            : Constant
    Bit rate                                 : 448 Kbps
    Channel(s)                               : 6 channels
    Channel positions                        : Front: L C R, Side: L R, LFE
    Sampling rate                            : 48.0 KHz
    Bit depth                                : 16 bits
    Compression mode                         : Lossy
    Delay relative to video                  : 300ms
    Stream size                              : 461 MiB (15%)
    Default                                  : Yes
    Forced                                   : No






    SINGLE DIRECT FAST LINK


    Code:
    http://extabit.com/file/2dvlvbnlua0ti/Rowdy Rathore (2012) 720P DVD Rip X264 AC3 Sub BWTV.mkv


    700MB LINKS

    Code:
    http://extabit.com/file/2dvlvbnluaa6u/Rowdy Rathore (2012) 720P DVD Rip X264 AC3 Sub BWTV.mkv.001
    http://extabit.com/file/2dvlvbnluaa9i/Rowdy Rathore (2012) 720P DVD Rip X264 AC3 Sub BWTV.mkv.002
    http://extabit.com/file/2dvlvbnluaa8m/Rowdy Rathore (2012) 720P DVD Rip X264 AC3 Sub BWTV.mkv.003
    http://extabit.com/file/2dvlvbnluaabq/Rowdy Rathore (2012) 720P DVD Rip X264 AC3 Sub BWTV.mkv.004
    http://extabit.com/file/2dvlvbnlua70m/Rowdy Rathore (2012) 720P DVD Rip X264 AC3 Sub BWTV.mkv.005
    http://extabit.com/file/2dvlvbnlua72u/Rowdy Rathore (2012) 720P DVD Rip X264 AC3 Sub BWTV.srt
    Code:
    http://www.netload.in/dateid1W7wPGSbA/Rowdy Rathore (2012) 720P DVD Rip X264 AC3 Sub BWTV.mkv.001.htm
    http://www.netload.in/datei8ZZScOz1nV/Rowdy Rathore (2012) 720P DVD Rip X264 AC3 Sub BWTV.mkv.002.htm
    http://www.netload.in/dateiZ6p2ex3wPc/Rowdy Rathore (2012) 720P DVD Rip X264 AC3 Sub BWTV.mkv.003.htm
    http://www.netload.in/dateiee0wyVnI2P/Rowdy Rathore (2012) 720P DVD Rip X264 AC3 Sub BWTV.mkv.004.htm
    http://www.netload.in/dateioDHChDDvES/Rowdy Rathore (2012) 720P DVD Rip X264 AC3 Sub BWTV.mkv.005.htm
    http://www.netload.in/dateiCiXU4R6CkR/Rowdy Rathore (2012) 720P DVD Rip X264 AC3 Sub BWTV.srt.htm


 

 

Posting Permissions

  • You may not post new threads
  • You may not post replies
  • You may not post attachments
  • You may not edit your posts
  •