Results 1 to 1 of 1
  1. #1
    dR Rockers www.desirulez.net
    Join Date
    Aug 2011
    Posts
    5,859

    Cool Rowdy Rathore (2012) DVD Rip Xvid AC3 Sub BWTV

    Follow us on Social Media











    Code:
    General
    Complete name                            : C:\Users\root\Downloads\Rowdy Rathore (2012) DVD Rip Xvid AC3 Sub BWTV\Rowdy Rathore (2012) DVD Rip Xvid AC3 Sub BWTV.avi
    Format                                   : AVI
    Format/Info                              : Audio Video Interleave
    File size                                : 1.46 GiB
    Duration                                 : 2h 23mn
    Overall bit rate                         : 1 454 Kbps
    
    Video
    ID                                       : 0
    Format                                   : MPEG-4 Visual
    Format profile                           : Advanced [email protected]
    Format settings, BVOP                    : 2
    Format settings, QPel                    : Yes
    Format settings, GMC                     : No warppoints
    Format settings, Matrix                  : Default (H.263)
    Codec ID                                 : XVID
    Codec ID/Hint                            : XviD
    Source                                   : BWTV @ http://************/2y8mb4
    Duration                                 : 2h 23mn
    Bit rate                                 : 998 Kbps
    Width                                    : 640 pixels
    Height                                   : 272 pixels
    Display aspect ratio                     : 2.35:1
    Frame rate                               : 23.976 fps
    Color space                              : YUV
    Chroma subsampling                       : 4:2:0
    Bit depth                                : 8 bits
    Scan type                                : Progressive
    Compression mode                         : Lossy
    Bits/(Pixel*Frame)                       : 0.239
    Stream size                              : 1.00 GiB (69%)
    Writing library                          : XviD 1.2.1 (UTC 2008-12-04)
    
    Audio
    ID                                       : 1
    Format                                   : AC-3
    Format/Info                              : Audio Coding 3
    Mode extension                           : CM (complete main)
    Codec ID                                 : 2000
    Duration                                 : 2h 23mn
    Bit rate mode                            : Constant
    Bit rate                                 : 448 Kbps
    Channel(s)                               : 6 channels
    Channel positions                        : Front: L C R, Side: L R, LFE
    Sampling rate                            : 48.0 KHz
    Bit depth                                : 16 bits
    Compression mode                         : Lossy
    Stream size                              : 461 MiB (31%)
    Alignment                                : Aligned on interleaves
    Interleave, duration                     : 64 ms (1.53 video frames)
    Interleave, preload duration             : 192 ms
    Title                                    : AudioFile_80_new







    Code:
    http://extabit.com/file/2dvlvbmv480ie/Rowdy Rathore (2012) DVD Rip Xvid AC3 Sub BWTV.avi
    http://extabit.com/file/2dvlvbmv480h2/Rowdy Rathore (2012) DVD Rip Xvid AC3 Sub BWTV.srt
    Code:
    http://www.netload.in/dateiaJ2ERAJFP4/Rowdy Rathore (2012) DVD Rip Xvid AC3 Sub BWTV.avi.htm
    http://www.netload.in/dateieCl4t1hPOR/Rowdy Rathore (2012) DVD Rip Xvid AC3 Sub BWTV.srt.htm

 

 

Posting Permissions

  • You may not post new threads
  • You may not post replies
  • You may not post attachments
  • You may not edit your posts
  •