Results 1 to 1 of 1
  1. #1
    dR Rockers www.desirulez.net
    Join Date
    Aug 2011
    Posts
    5,859

    Cool Shanghai (2012) DVD Rip Xvid AC3 Subs BWTV

    Follow us on Social Media












    Code:
    General
    Complete name                            : Shanghai (2012) DVD Rip Xvid AC3 Subs BWTV.avi
    Format                                   : AVI
    Format/Info                              : Audio Video Interleave
    File size                                : 1.46 GiB
    Duration                                 : 1h 53mn
    Overall bit rate                         : 1 838 Kbps
    Writing library                          : VirtualDub build 32661/release
    
    Video
    ID                                       : 0
    Format                                   : MPEG-4 Visual
    Format profile                           : Advanced [email protected]
    Format settings, BVOP                    : 2
    Format settings, QPel                    : Yes
    Format settings, GMC                     : No warppoints
    Format settings, Matrix                  : Default (H.263)
    Codec ID                                 : XVID
    Codec ID/Hint                            : XviD
    Duration                                 : 1h 53mn
    Bit rate                                 : 1 380 Kbps
    Width                                    : 656 pixels
    Height                                   : 288 pixels
    Display aspect ratio                     : 2.25:1
    Frame rate                               : 23.976 fps
    Color space                              : YUV
    Chroma subsampling                       : 4:2:0
    Bit depth                                : 8 bits
    Scan type                                : Progressive
    Compression mode                         : Lossy
    Bits/(Pixel*Frame)                       : 0.305
    Stream size                              : 1.10 GiB (75%)
    Writing library                          : XviD 1.2.1 (UTC 2008-12-04)
    
    Audio
    ID                                       : 1
    Format                                   : AC-3
    Format/Info                              : Audio Coding 3
    Mode extension                           : CM (complete main)
    Codec ID                                 : 2000
    Duration                                 : 1h 53mn
    Bit rate mode                            : Constant
    Bit rate                                 : 448 Kbps
    Channel(s)                               : 6 channels
    Channel positions                        : Front: L C R, Side: L R, LFE
    Sampling rate                            : 48.0 KHz
    Bit depth                                : 16 bits
    Compression mode                         : Lossy
    Stream size                              : 365 MiB (24%)
    Alignment                                : Aligned on interleaves
    Interleave, duration                     : 42 ms (1.00 video frame)
    Interleave, preload duration             : 512 ms







    Code:
    http://extabit.com/file/2dvlve9g5u3ye/Shanghai (2012) DVD Rip Xvid AC3 Subs BWTV.srt
    http://extabit.com/file/2dvlve9g5tuee/Shanghai (2012) DVD Rip Xvid AC3 Subs BWTV.avi
    Code:
    http://www.netload.in/dateiIvQt0JcoKu/Shanghai (2012) DVD Rip Xvid AC3 Subs BWTV.avi.htm
    http://www.netload.in/dateiwXkpEy1O6X/Shanghai (2012) DVD Rip Xvid AC3 Subs BWTV.srt.htm

 

 

Posting Permissions

  • You may not post new threads
  • You may not post replies
  • You may not post attachments
  • You may not edit your posts
  •