Results 1 to 1 of 1
  1. #1
    dR Rockers www.desirulez.net
    Join Date
    Aug 2011
    Posts
    5,859

    Cool Shangai (2012) - 720p - x264 - DVDRip - Hindi 6Ch - EXD Exclusive

    Follow us on Social Media










    Code:
    Rip Information
     
     Format                                   : Matroska Format version                           : Version 2 File size                                : 1.30 GiB Duration                                 : 1h 53mn Overall bit rate                         : 1 630 Kbps Movie name                               : Shangai.[2012].x264.DVDRip.Hindi.6Ch.By [email protected] .[EXD Exclusive] Encoded date                             : UTC 2012-07-24 01:59:56 
     
     Video
     
     Format                                   : AVC Format/Info                              : Advanced Video Codec Format profile                           : [email protected] Format settings, CABAC                   : Yes Format settings, ReFrames                : 4 frames Muxing mode                              : Header stripping Codec ID                                 : V_MPEG4/ISO/AVC Duration                                 : 1h 53mn Bit rate                                 : 1 181 Kbps Width                                    : 1 280 pixels Height                                   : 588 pixels Display aspect ratio                     : 2.2:1 Frame rate                               : 23.976 fps Color space                              : YUV Chroma subsampling                       : 4:2:0 Bit depth                                : 8 bits Scan type                                : Progressive Bits/(Pixel*Frame)                       : 0.065 Stream size                              : 936 MiB (71%) Title                                    : [email protected] Writing library                          : x264 core 125 r2200 999b753 
     
     Audio 1
     
     Format                                   : AC-3 Format/Info                              : Audio Coding 3 Mode extension                           : CM (complete main) Format settings, Endianness              : Big Muxing mode                              : Header stripping Codec ID                                 : A_AC3 Duration                                 : 1h 53mn Bit rate mode                            : Constant Bit rate                                 : 224 Kbps Channel(s)                               : 6 channels Channel positions                        : Front: L C R, Side: L R, LFE Sampling rate                            : 48.0 KHz Bit depth                                : 16 bits Compression mode                         : Lossy Stream size                              : 182 MiB (14%) Title                                    : [email protected] Language                                 : Hindi Default                                  : Yes 
     
     Audio 2
     
     Format                                   : AC-3 Format/Info                              : Audio Coding 3 Mode extension                           : CM (complete main) Format settings, Endianness              : Big Muxing mode                              : Header stripping Codec ID                                 : A_AC3 Duration                                 : 1h 53mn Bit rate mode                            : Constant Bit rate                                 : 224 Kbps Channel(s)                               : 2 channels Channel positions                        : Front: L R Sampling rate                            : 48.0 KHz Bit depth                                : 16 bits Compression mode                         : Lossy Stream size                              : 182 MiB (14%) Title                                    : [email protected] Language                                 : Hindi
















    Code:
    http://extabit.com/file/2dvlve9g8xcba/Shangai.[2012].720p.x264.DVDRip.Hindi.6Ch.By [email protected] .[EXD Exclusive].mkv
    Code:
    http://www.netload.in/dateiSh7BxFaIvI/Shangai.[2012].720p.x264.DVDRip.Hindi.6Ch.By [email protected] .[EXD Exclusive].mkv.htm

 

 

Posting Permissions

  • You may not post new threads
  • You may not post replies
  • You may not post attachments
  • You may not edit your posts
  •