Results 1 to 1 of 1
  1. #1
    Hot Member www.desirulez.net
    Join Date
    Feb 2011
    Location
    Bulletproof IP
    Posts
    1,189

    Default Jaaneman (2012) - Bengali 1CD DVDRip - XviD - MP3

    Follow us on Social Media





    Jaaneman
    (Bengali)
    1CD DVDRip - XviD - MP3
    (2012)





    Jaaneman synopsis (Story)

    Deba immedietly falls in love with Rhea when he sees her at a bus stand and later on when he is at the station, they come across each other. Deba takes Rhea and the person accompanying her to Cooch Behar, but on the way, while taking fuel from a petrol pump, he comes to know the truth. That is Rhea ‘s father had fixed her marriage with his girfriend’s brother (yup, he used to ill treat her mother and so it was a troubled existence for her)and she was against this so she asks Deba to take her to Kolkata. On the way Deba starts telling his story and says that even Sridhar,a notorious ...

    Soham, Koel Mallick, Partho Sarathi Chakraborty, Ashish Vidyarthi...



    General
    Format : AVI
    Format/Info : Audio Video Interleave
    File size : 701 MiB
    Duration : 2h 13mn
    Overall bit rate : 734 Kbps
    Video #0
    ID : 0
    Format : MPEG-4 Visual
    Format profile : Advanced [email protected]
    Format settings, BVOP : 2
    Format settings, QPel : No
    Format settings, GMC : No warppoints
    Format settings, Matrix : Default (H.263)
    Codec ID : XVID
    Codec ID/Hint : XviD
    Duration : 2h 13mn
    Bit rate : 664 Kbps
    Width : 640 pixels
    Height : 272 pixels
    Display aspect ratio : 2.35:1
    Frame rate : 25.000 fps
    Color space : YUV
    Chroma subsampling : 4:2:0
    Bit depth : 8 bits
    Scan type : Progressive
    Compression mode : Lossy
    Bits/(Pixel*Frame) : 0.153
    Stream size : 634 MiB (90%)


    Audio #1
    ID : 1
    Format : MPEG Audio
    Format version : Version 2
    Format profile : Layer 3
    Mode : Joint stereo
    Mode extension : MS Stereo
    Codec ID : 55
    Codec ID/Hint : MP3
    Duration : 2h 13mn
    Bit rate mode : Constant
    Bit rate : 64.0 Kbps
    Channel(s) : 2 channels
    Sampling rate : 24.0 KHz
    Compression mode : Lossy
    Stream size : 61.1 MiB (9%)
















    All Credits Goes To Ripper (Thanks)

    File Size: 701.04 MB

    Code:
    http://turbobit.net/f7pqqzkwlp2u/Jaaneman2012_-_Bengali-1CD-DVDRip-XviD-MP3.avi.html
    or
    http://rapidgator.net/file/26642727/Jaaneman2012_-_Bengali-1CD-DVDRip-XviD-MP3.avi.html
    or
    http://www.filefactory.com/file/6t20lrj3uxid/n/Jaaneman2012_-_Bengali-1CD-DVDRip-XviD-MP3.avi

 

 

Posting Permissions

  • You may not post new threads
  • You may not post replies
  • You may not post attachments
  • You may not edit your posts
  •