Results 1 to 1 of 1
  1. #1

    Default Mere Dost Picture Abhi Baki Hai (2012) SCam - 1CDRip - Hindi - XVID [D3Si ExClusive]

    Follow us on Social Media





    Mere Dost Picture Abhi Baki Hai (2012) SCam - 1CDRip - 700MB - XVID [D3Si ExClusive]





    Code:
    General
    Complete name                  : L:\MDPABH.avi
    Format                         : AVI
    Format/Info                    : Audio Video Interleave
    File size                      : 680 MiB
    Duration                       : 1h 52mn
    Overall bit rate               : 845 Kbps
    Writing library                : Boilsoft AVI tool build 1/release
    
    Video
    ID                             : 0
    Format                         : MPEG-4 Visual
    Format profile                 : Advanced [email protected]
    Format settings, BVOP          : 2
    Format settings, QPel          : No
    Format settings, GMC           : No warppoints
    Format settings, Matrix        : Default (H.263)
    Codec ID                       : XVID
    Codec ID/Hint                  : XviD
    Duration                       : 1h 52mn
    Bit rate                       : 707 Kbps
    Width                          : 592 pixels
    Height                         : 272 pixels
    Display aspect ratio           : 2.2:1
    Frame rate                     : 25.000 fps
    Color space                    : YUV
    Chroma subsampling             : 4:2:0
    Bit depth                      : 8 bits
    Scan type                      : Progressive
    Compression mode               : Lossy
    Bits/(Pixel*Frame)             : 0.176
    Stream size                    : 570 MiB (84%)
    Writing library                : XviD 1.2.1 (UTC 2008-12-04)
    
    Audio
    ID                             : 1
    Format                         : MPEG Audio
    Format version                 : Version 1
    Format profile                 : Layer 3
    Mode                           : Joint stereo
    Mode extension                 : MS Stereo
    Codec ID                       : 55
    Codec ID/Hint                  : MP3
    Duration                       : 1h 52mn
    Bit rate mode                  : Constant
    Bit rate                       : 128 Kbps
    Channel(s)                     : 2 channels
    Sampling rate                  : 48.0 KHz
    Compression mode               : Lossy
    Delay relative to video        : 16ms
    Stream size                    : 103 MiB (15%)
    Alignment                      : Split accross interleaves
    Interleave, duration           : 40 ms (1.00 video frame)
    Interleave, preload duration   : 500 ms




    Code:
    http://w.hulkfile.com/d2ie17ngonzh.html
    
    http://rapidgator.net/file/26553256/MDPABH.avi.htm

    Last edited by faraan2008; 07-21-2012 at 06:44 PM.

 

 

Posting Permissions

  • You may not post new threads
  • You may not post replies
  • You may not post attachments
  • You may not edit your posts
  •