Results 1 to 1 of 1
  1. #1
    Hot Member www.desirulez.net
    Join Date
    Feb 2011
    Location
    Bulletproof IP
    Posts
    1,189

    Default Bol Bachchan (2012) - 1/5 DVDScr - XviD - AC3 - E-subs - 900MB - [TDT]

    Follow us on Social Media





    Bol Bachchan
    1/5 DVDScr - XviD - AC3 - E-subs - 900MB - [TDT]
    (2012)



    General
    Complete name : Bol Bachchan (2012) - Xvid - DvdScr Rip - E-subs - [TDT].avi
    IMDB : Bol Bachchan (2012) - IMDb
    Format : AVI
    File size : 894 MiB
    Duration : 2h 24mn
    Source : DvdSCR @ Team ICTV .. THnx A lot
    Ripper : KingFisheR [~TDT~].
    Video

    Codec ID : XVID
    Duration : 2h 24mn
    Bit rate : 758 Kbps
    Width : 672 pixels
    Height : 288 pixels
    Display aspect ratio : 2.35:1
    Frame rate : 23.976 fps
    Bits/(Pixel*Frame) : 0.163
    Stream size : 785 MiB (88%)

    Audio

    Format : AC-3
    Duration : 2h 24mn
    Bit rate mode : Constant
    Bit rate : 96.0 Kbps
    Channel(s) : 2 channels
    Channel positions : Front: L R
    Sampling rate : 48.0 KHz
    Stream size : 99.4 MiB (11%)


















    All Credits Goes To KingFisheR @ TDT (Thanks)

    File Size: 894.03 MB

    Code:
    http://turbobit.net/twoh0tumfwyi/Bol_B2012_-_1-5-DVDScr-XviD-AC3-900MB-TDT.avi.html
    or
    http://extabit.com/file/27a3trjyg6v9a/Bol_B2012_-_1-5-DVDScr-XviD-AC3-900MB-TDT.avi
    or
    http://www.filefactory.com/file/7b4zu1x6cvyr/n/Bol_B2012_-_1-5-DVDScr-XviD-AC3-900MB-TDT.avi
    English Subtitles

    Code:
    http://jumbofiles.com/r3h0g9wmbgo0/Bol_B2012_-_1-5-DVDScr-XviD-AC3-900MB-TDT.srt.html
    Re-upload Service is [ON] for 15 days

 

 

Posting Permissions

  • You may not post new threads
  • You may not post replies
  • You may not post attachments
  • You may not edit your posts
  •