Results 1 to 1 of 1
  1. #1
    dR Contributor www.desirulez.net
    Join Date
    Jan 2011
    Posts
    2,299

    Smile Bol Bachchan (2012) (Audio Cleaned) - 1CD - ScamRip - XviD - MP3 - [T.R]

    Follow us on Social Media








    Source : T.R
    Credits : T.R
    Format : AVI
    Format/Info : Audio Video Interleave
    File size : 693 MiB
    Duration : 2h 21mn
    Overall bit rate : 686 Kbps

    Video
    ID : 0
    Format : MPEG-4 Visual
    Format profile : Advanced [email protected]
    Format settings, BVOP : 2
    Format settings, QPel : No
    Format settings, GMC : No warppoints
    Format settings, Matrix : Default (H.263)
    Codec ID : XVID
    Codec ID/Hint : XviD
    Duration : 2h 21mn
    Bit rate : 615 Kbps
    Width : 640 pixels
    Height : 272 pixels
    Display aspect ratio : 2.35:1
    Frame rate : 25.000 fps
    Color space : YUV
    Chroma subsampling : 4:2:0
    Bit depth : 8 bits
    Scan type : Progressive
    Compression mode : Lossy
    Bits/(Pixel*Frame) : 0.141
    Stream size : 622 MiB (90%)
    Writing library : XviD 1.2.1 (UTC 2008-12-04)

    Audio
    ID : 1
    Format : MPEG Audio
    Format version : Version 2
    Format profile : Layer 3
    Mode : Joint stereo
    Mode extension : MS Stereo
    Codec ID : 55
    Codec ID/Hint : MP3
    Duration : 2h 21mn
    Bit rate mode : Constant
    Bit rate : 64.0 Kbps
    Channel(s) : 2 channels
    Sampling rate : 24.0 KHz
    Compression mode : Lossy
    Stream size : 64.7 MiB (9%)
    Alignment : Aligned on interleaves
    Interleave, duration : 160 ms (4.00 video frames)
    Interleave, preload duration : 216 ms
    Title : Final Tc0 L2 2ch 48 160 DELAY 0ms
    Writing library : LAME3.99r







    Credits to "T.R."



    Code:
    http://azushare.net/SWrxpBLop1f7MwH1/BB.2012.TR.avi
    OR

    Code:
    http://freakshare.com/files/vdx9aosa/BB.2012.TR.avi.html
    OR

    Code:
    http://extabit.com/file/27b6ipbj1p53l

 

 

Posting Permissions

  • You may not post new threads
  • You may not post replies
  • You may not post attachments
  • You may not edit your posts
  •