Results 1 to 1 of 1
  1. #1

    Default Yaavarum Nalam 2009 Untouched Blu-ray 1080p AVC DTS 43.83 GB

    Follow us on Social Media





    Yaavarum Nalam 2009 Untouched Blu-ray 1080p AVC DTS 43.83 GB





    Code:
    Format : BDAV
    Format/Info : Blu-ray Video
    File size : 42.4 GiB
    Duration : 2h 24mn
    Overall bit rate : 42.1 Mbps
    Maximum Overall bit rate : 48.0 Mbps
    
    Video
    ID : 4113 (0x1011)
    Menu ID : 1 (0x1)
    Format : AVC
    Format/Info : Advanced Video Codec
    Format profile : [email protected]
    Format settings, CABAC : Yes
    Format settings, ReFrames : 4 frames
    Codec ID : 27
    Duration : 2h 24mn
    Bit rate mode : Variable
    Maximum bit rate : 37.0 Mbps
    Width : 1 920 pixels
    Height : 1 080 pixels
    Display aspect ratio : 16:9
    Frame rate : 24.000 fps
    Standard : NTSC
    Color space : YUV
    Chroma subsampling : 4:2:0
    Bit depth : 8 bits
    Scan type : Progressive
    Color primaries : BT.709-5, BT.1361, IEC 61966-2-4, SMPTE RP177
    Transfer characteristics : BT.709-5, BT.1361
    Matrix coefficients : BT.709-5, BT.1361, IEC 61966-2-4 709, SMPTE RP177
    
    Audio #1
    ID : 4352 (0x1100)
    Menu ID : 1 (0x1)
    Format : DTS
    Format/Info : Digital Theater Systems
    Format profile : MA
    Muxing mode : Stream extension
    Codec ID : 134
    Duration : 2h 24mn
    Bit rate mode : Variable
    Channel(s) : 6 channels
    Channel positions : Front: L C R, Side: L R, LFE
    Sampling rate : 48.0 KHz
    Bit depth : 24 bits
    
    Audio #2
    ID : 4353 (0x1101)
    Menu ID : 1 (0x1)
    Format : AC-3
    Format/Info : Audio Coding 3
    Mode extension : CM (complete main)
    Codec ID : 129
    Duration : 2h 24mn
    Bit rate mode : Constant
    Bit rate : 640 Kbps
    Channel(s) : 6 channels
    Channel positions : Front: L C R, Side: L R, LFE
    Sampling rate : 48.0 KHz
    Bit depth : 16 bits
    Stream size : 660 MiB (2%)
    
    Audio #3
    ID : 4354 (0x1102)
    Menu ID : 1 (0x1)
    Format : AC-3
    Format/Info : Audio Coding 3
    Mode extension : CM (complete main)
    Codec ID : 129
    Duration : 2h 24mn
    Bit rate mode : Constant
    Bit rate : 192 Kbps
    Channel(s) : 2 channels
    Channel positions : Front: L R
    Sampling rate : 48.0 KHz
    Bit depth : 16 bits
    Stream size : 198 MiB (0%)
    
    Text
    ID : 4608 (0x1200)
    Menu ID : 1 (0x1)
    Format : PGS
    Codec ID : 144






    Code:
    Yaavarum.Nalam.2009.FSC.Untouched.1080p.Blu-Ray.BD50-prathaprabhu.part01.rar
    Yaavarum.Nalam.2009.FSC.Untouched.1080p.Blu-Ray.BD50-prathaprabhu.part02.rar
    Yaavarum.Nalam.2009.FSC.Untouched.1080p.Blu-Ray.BD50-prathaprabhu.part03.rar
    Yaavarum.Nalam.2009.FSC.Untouched.1080p.Blu-Ray.BD50-prathaprabhu.part04.rar
    Yaavarum.Nalam.2009.FSC.Untouched.1080p.Blu-Ray.BD50-prathaprabhu.part05.rar
    Yaavarum.Nalam.2009.FSC.Untouched.1080p.Blu-Ray.BD50-prathaprabhu.part06.rar
    Yaavarum.Nalam.2009.FSC.Untouched.1080p.Blu-Ray.BD50-prathaprabhu.part07.rar
    Yaavarum.Nalam.2009.FSC.Untouched.1080p.Blu-Ray.BD50-prathaprabhu.part08.rar
    Yaavarum.Nalam.2009.FSC.Untouched.1080p.Blu-Ray.BD50-prathaprabhu.part09.rar

    Code:
    http://netfolder.in/folder.php?folder_id=3DXvYVT

    Code:
    http://ul.to/folder/wkysps

    Code:
    prathaprabhu

 

 

Posting Permissions

  • You may not post new threads
  • You may not post replies
  • You may not post attachments
  • You may not edit your posts
  •