Results 1 to 1 of 1
  1. #1
    Hot Member www.desirulez.net
    Join Date
    Sep 2009
    Posts
    1,215

    Thumbs up Bol Bacchan-2012(Audio Cleaned)-1CD-ScamRip-[XviD-MP3]

    Follow us on Social Media








    Code:
    General
    Format : AVI
    Format/Info : Audio Video Interleave
    File size : 627 MiB
    Duration : 2h 21mn
    Overall bit rate : 620 Kbps
    Video #0
    ID : 0
    Format : MPEG-4 Visual
    Format profile : Advanced [email protected]
    Format settings, BVOP : 2
    Format settings, QPel : No
    Format settings, GMC : No warppoints
    Format settings, Matrix : Default (H.263)
    Codec ID : XVID
    Codec ID/Hint : XviD
    Duration : 2h 21mn
    Bit rate : 615 Kbps
    Width : 640 pixels
    Height : 272 pixels
    Display aspect ratio : 2.35:1
    Frame rate : 25.000 fps
    Color space : YUV
    Chroma subsampling : 4:2:0
    Bit depth : 8 bits
    Scan type : Progressive
    Bits/(Pixel*Frame) : 0.141
    Stream size : 622 MiB (99%)
    Code:
    Audio #1
    ID : 1
    Format : MPEG Audio
    Format version : Version 2
    Format profile : Layer 3
    Mode : Joint stereo
    Mode extension : MS Stereo
    Codec ID : 55
    Codec ID/Hint : MP3
    Duration : 2h 21mn
    Bit rate mode : Constant
    Bit rate : 64.0 Kbps
    Channel(s) : 2 channels
    Sampling rate : 24.0 KHz
    Compression mode : Lossy
    Stream size : 64.7 MiB (9%)






    Code:
    http://turbobit.net/pj89cag880ue/Bol Bacchan-2012(Audio Cleaned)-1CD-ScamRip-[XviD-MP3].avi.html
    
    http://www.filefactory.com/file/4rp5ptkhn52j/n/Bol_Bacchan-2012_Audio_Cleaned_-1CD-ScamRip-_XviD-MP3_avi
    
    http://w.hulkfile.com/u4vcj4zspnsd.html
    
    http://www.filefat.com/bgvzpa6dmr5n






 

 

Posting Permissions

  • You may not post new threads
  • You may not post replies
  • You may not post attachments
  • You may not edit your posts
  •