Results 1 to 1 of 1
  1. #1
    dR Contributor www.desirulez.net
    Join Date
    Jan 2011
    Posts
    2,299

    Smile Maximum (2012) - 1CD - DVDScr - Xvid - AC3 - [TDT]

    Follow us on Social Media





    Format : AVI
    File size : 699 MiB
    Duration : 1h 46mn
    Overall bit rate : 920 Kbps
    Source : DvdSCR @ Team ICTV .. THnx A lot
    Ripper : KingFisheR [~TDT~].

    Video

    Codec ID : XVID
    Duration : 1h 46mn
    Bit rate : 783 Kbps
    Width : 688 pixels
    Height : 288 pixels
    Display aspect ratio : 2.40:1
    Frame rate : 23.976 fps
    Scan type : Progressive
    Bits/(Pixel*Frame) : 0.165
    Stream size : 594 MiB (85%)

    Audio

    Format : AC-3
    Duration : 1h 46mn
    Bit rate : 128 Kbps
    Channel(s) : 2 channels
    Channel positions : Front: L R
    Sampling rate : 48.0 KHz
    Stream size : 97.2 MiB (14%)









    Credits to "TDT"



    Code:
    http://azushare.net/8ID38iTfWrm4GMb3/MaxiMum.2012.DVDscr.XviD.AC3.TDT.avi
    OR

    Code:
    http://www.filefactory.com/file/12jts56kgap5
    OR

    Code:
    http://freakshare.com/files/86hfo7i1/MaxiMum.2012.DVDscr.XviD.AC3.TDT.avi.html

 

 

Posting Permissions

  • You may not post new threads
  • You may not post replies
  • You may not post attachments
  • You may not edit your posts
  •