Results 1 to 1 of 1
  1. #1
    Hot Member www.desirulez.net
    Join Date
    Feb 2011
    Location
    Bulletproof IP
    Posts
    1,189

    Default Maximum (2012) - DVDScr - 1CD - XviD - AC3 - [TDT]

    Follow us on Social Media





    Maximum
    DVDScr - 1CD - XviD - AC3 - [TDT]
    (2012)



    Code:
    General
    Complete name : Maximum (2012) - Xvid - 1CD - DvdScr Rip - AC3 - [TDT].avi
    IMDB : Maximum (2012) - IMDb
    Format : AVI
    File size : 699 MiB
    Duration : 1h 46mn
    Overall bit rate : 920 Kbps
    Source : DvdSCR @ Team ICTV .. THnx A lot
    Ripper : KingFisheR [~TDT~].
    
    Video
    
    Codec ID : XVID
    Duration : 1h 46mn
    Bit rate : 783 Kbps
    Width : 688 pixels
    Height : 288 pixels
    Display aspect ratio : 2.40:1
    Frame rate : 23.976 fps
    Scan type : Progressive
    Bits/(Pixel*Frame) : 0.165
    Stream size : 594 MiB (85%)
    
    Audio
    
    Format : AC-3
    Duration : 1h 46mn
    Bit rate : 128 Kbps
    Channel(s) : 2 channels
    Channel positions : Front: L R
    Sampling rate : 48.0 KHz
    Stream size : 97.2 MiB (14%)


















    All Credits Goes To KingFisheR @ TDT (Thanks)

    File Size: 698.56 MB

    Code:
    http://turbobit.net/6vaqqv4nuwaz/MaXImum2012_-_DVDScr-1CD-XviD-AC3-TDT.avi.html
    or
    http://extabit.com/file/27a3ttbl2po0u/MaXImum2012_-_DVDScr-1CD-XviD-AC3-TDT.avi
    or
    http://www.filefactory.com/file/4i0bnq0jzf5z/n/MaXImum2012_-_DVDScr-1CD-XviD-AC3-TDT.avi
    Re-upload Service is [ON] for 15 days

 

 

Posting Permissions

  • You may not post new threads
  • You may not post replies
  • You may not post attachments
  • You may not edit your posts
  •