Results 1 to 1 of 1
  1. #1
    dR Rockers www.desirulez.net
    Join Date
    Aug 2011
    Posts
    5,859

    Cool Ishaqzaade (2012) - 720p - DVDRip - X264 - AC3 - Subs - BWTV

    Follow us on Social Media













    Code:
    General
    Complete name                            : Ishaqzaade (2012) 720P DVD Rip X264 AC3 Subs BWTV.mkv
    Format                                   : Matroska
    Format version                           : Version 2
    File size                                : 4.31 GiB
    Duration                                 : 2h 12mn
    Overall bit rate                         : 4 676 Kbps
    Encoded date                             : UTC 2012-06-30 22:26:34
    Writing application                      : mkvmerge v5.6.0 ('Kenya Kane') built on May 27 2012 16:44:04
    Writing library                          : libebml v1.2.3 + libmatroska v1.3.0
    
    Video
    ID                                       : 1
    Format                                   : AVC
    Format/Info                              : Advanced Video Codec
    Format profile                           : [email protected]
    Format settings, CABAC                   : Yes
    Format settings, ReFrames                : 4 frames
    Codec ID                                 : V_MPEG4/ISO/AVC
    Duration                                 : 2h 12mn
    Bit rate                                 : 4 291 Kbps
    Width                                    : 1 280 pixels
    Height                                   : 544 pixels
    Display aspect ratio                     : 2.35:1
    Frame rate                               : 25.000 fps
    Color space                              : YUV
    Chroma subsampling                       : 4:2:0
    Bit depth                                : 8 bits
    Scan type                                : Progressive
    Bits/(Pixel*Frame)                       : 0.246
    Stream size                              : 3.87 GiB (90%)
    Writing library                          : x264 core 125 r2200 999b753
    Encoding settings                        : cabac=1 / ref=3 / deblock=1:0:0 / analyse=0x3:0x111 / me=hex / subme=7 / psy=1 / psy_rd=1.00:0.00 / mixed_ref=1 / me_range=16 / chroma_me=1 / trellis=1 / 8x8dct=1 / cqm=0 / deadzone=21,11 / fast_pskip=1 / chroma_qp_offset=-2 / threads=12 / lookahead_threads=2 / sliced_threads=0 / nr=0 / decimate=1 / interlaced=0 / bluray_compat=0 / constrained_intra=0 / bframes=3 / b_pyramid=2 / b_adapt=1 / b_bias=0 / direct=1 / weightb=1 / open_gop=0 / weightp=2 / keyint=250 / keyint_min=25 / scenecut=40 / intra_refresh=0 / rc_lookahead=40 / rc=2pass / mbtree=1 / bitrate=4291 / ratetol=1.0 / qcomp=0.60 / qpmin=0 / qpmax=69 / qpstep=4 / cplxblur=20.0 / qblur=0.5 / ip_ratio=1.40 / aq=1:1.00
    Language                                 : English
    Default                                  : Yes
    Forced                                   : No
    
    Audio
    ID                                       : 2
    Format                                   : AC-3
    Format/Info                              : Audio Coding 3
    Mode extension                           : CM (complete main)
    Codec ID                                 : A_AC3
    Duration                                 : 2h 12mn
    Bit rate mode                            : Constant
    Bit rate                                 : 384 Kbps
    Channel(s)                               : 6 channels
    Channel positions                        : Front: L C R, Side: L R, LFE
    Sampling rate                            : 48.0 KHz
    Bit depth                                : 16 bits
    Compression mode                         : Lossy
    Stream size                              : 363 MiB (8%)
    Default                                  : Yes
    Forced                                   : No






    SINGLE DIRECT FAST LINK

    Code:
    http://extabit.com/file/2dvlv90wvwrvk/Ishaqzaade (2012) 720P DVD Rip X264 AC3 Subs BWTV.mkv
    700MB LINKS


    Code:
    http://www.netload.in/dateiC8kIEJ496S/Ishaqzaade (2012) 720P DVD Rip X264 AC3 Subs BWTV.mkv.001.htm
    http://www.netload.in/dateiDCwSsV6wcf/Ishaqzaade (2012) 720P DVD Rip X264 AC3 Subs BWTV.mkv.002.htm
    http://www.netload.in/dateizWGp6jtrof/Ishaqzaade (2012) 720P DVD Rip X264 AC3 Subs BWTV.mkv.003.htm
    http://www.netload.in/dateiAKyhrL5hWC/Ishaqzaade (2012) 720P DVD Rip X264 AC3 Subs BWTV.mkv.004.htm
    http://www.netload.in/dateiSYdlBP47PQ/Ishaqzaade (2012) 720P DVD Rip X264 AC3 Subs BWTV.mkv.005.htm
    http://www.netload.in/dateifJVVebPQip/Ishaqzaade (2012) 720P DVD Rip X264 AC3 Subs BWTV.mkv.006.htm
    http://www.netload.in/dateiAGa5GrXLUK/Ishaqzaade (2012) 720P DVD Rip X264 AC3 Subs BWTV.mkv.007.htm
    http://www.netload.in/datei63RvUBj2C3/Ishaqzaade (2012) 720P DVD Rip X264 AC3 Subs BWTV.srt.htm

    Code:
    http://extabit.com/file/2dvlv90wvx7u8/Ishaqzaade (2012) 720P DVD Rip X264 AC3 Subs BWTV.mkv.001
    http://extabit.com/file/2dvlv90wvwyc0/Ishaqzaade (2012) 720P DVD Rip X264 AC3 Subs BWTV.mkv.002
    http://extabit.com/file/2dvlv90wvx7nk/Ishaqzaade (2012) 720P DVD Rip X264 AC3 Subs BWTV.mkv.003
    http://extabit.com/file/2dvlv90wvx7og/Ishaqzaade (2012) 720P DVD Rip X264 AC3 Subs BWTV.mkv.004
    http://extabit.com/file/2dvlv90wvwycw/Ishaqzaade (2012) 720P DVD Rip X264 AC3 Subs BWTV.mkv.005
    http://extabit.com/file/2dvlv90wvwotc/Ishaqzaade (2012) 720P DVD Rip X264 AC3 Subs BWTV.mkv.006
    http://extabit.com/file/2dvlv90wvwy68/Ishaqzaade (2012) 720P DVD Rip X264 AC3 Subs BWTV.mkv.007
    http://extabit.com/file/2dvlv90wvw2kg/Ishaqzaade (2012) 720P DVD Rip X264 AC3 Subs BWTV.srt

 

 

Posting Permissions

  • You may not post new threads
  • You may not post replies
  • You may not post attachments
  • You may not edit your posts
  •