Results 1 to 1 of 1
  1. #1
    Banned www.desirulez.net
    Join Date
    Jun 2012
    Posts
    108

    Default Tezz (2012) - 700MB - 1CDRip - DVD - XviD - MP3 - Subs - BWTV

    Follow us on Social Media







    Code:
    
    General Complete name                            : Tezz (2012) 1CD DVD Rip Xvid MP3 Subs BWTV.avi Format                                   : AVI Format/Info                              : Audio Video Interleave File size                                : 696 MiB Duration                                 : 2h 1mn Overall bit rate                         : 798 Kbps Writing library                          : VirtualDub build 32661/release  Video ID                                       : 0 Format                                   : MPEG-4 Visual Format profile                           : Advanced [email protected] Format settings, BVOP                    : 2 Format settings, QPel                    : Yes Format settings, GMC                     : No warppoints Format settings, Matrix                  : Default (H.263) Codec ID                                 : XVID Codec ID/Hint                            : XviD Duration                                 : 2h 1mn Bit rate                                 : 692 Kbps Width                                    : 608 pixels Height                                   : 256 pixels Display aspect ratio                     : 2.40:1 Frame rate                               : 23.976 fps Color space                              : YUV Chroma subsampling                       : 4:2:0 Bit depth                                : 8 bits Scan type                                : Progressive Compression mode                         : Lossy Bits/(Pixel*Frame)                       : 0.186 Stream size                              : 604 MiB (87%) Writing library                          : XviD 1.2.1 (UTC 2008-12-04)  Audio ID                                       : 1 Format                                   : MPEG Audio Format version                           : Version 1 Format profile                           : Layer 3 Mode                                     : Joint stereo Mode extension                           : MS Stereo Codec ID                                 : 55 Codec ID/Hint                            : MP3 Duration                                 : 2h 1mn Bit rate mode                            : Constant Bit rate                                 : 96.0 Kbps Channel(s)                               : 2 channels Sampling rate                            : 32.0 KHz Compression mode                         : Lossy Stream size                              : 83.7 MiB (12%) Alignment                                : Split accross interleaves Interleave, duration                     : 42 ms (1.00 video frame) Interleave, preload duration             : 500 ms Writing library                          : LAME3.99r Encoding settings                        : -m j -V 4 -q 2 -lowpass 15.1 -b 96







    [B]

    Single Links Download
    JumboFile | FreakShare | FileFactory | Uploaded.to


 

 

Posting Permissions

  • You may not post new threads
  • You may not post replies
  • You may not post attachments
  • You may not edit your posts
  •