Results 1 to 1 of 1
  1. #1
    dR Rockers www.desirulez.net
    Join Date
    Aug 2011
    Posts
    5,859

    Cool Vicky Donor - 2012 - DVDRip - 1080p - x264 - ESub -DiD

    Follow us on Social Media



















    File Info :

    Code:
     General
     
     Format                                   : Matroska
     Format version                           : Version 2
     File size                                : 4.37 GiB
     Duration                                 : 2h 5mn
     Overall bit rate mode                    : Variable
     Overall bit rate                         : 4 989 Kbps
     
     
     Video
     ID                                       : 1
     Format                                   : AVC
     Format/Info                              : Advanced Video Codec
     Format profile                           : [email protected]
     Format settings, CABAC                   : Yes
     Format settings, ReFrames                : 3 frames
     Codec ID                                 : V_MPEG4/ISO/AVC
     Duration                                 : 2h 5mn
     Bit rate mode                            : Variable
     Bit rate                                 : 4 537 Kbps
     Maximum bit rate                         : 40.0 Mbps
     Width                                    : 1 920 pixels
     Height                                   : 816 pixels
     Display aspect ratio                     : 2.35:1
     Frame rate                               : 23.976 fps
     Color space                              : YUV
     Chroma subsampling                       : 4:2:0
     Bit depth                                : 8 bits
     Scan type                                : Progressive
     Bits/(Pixel*Frame)                       : 0.121
     Stream size                              : 3.90 GiB (89%)
     
     
     Audio
     
     Format                                   : AC-3
     Format/Info                              : Audio Coding 3
     Mode extension                           : CM (complete main)
     Format settings, Endianness              : Big
     Codec ID                                 : A_AC3
     Duration                                 : 2h 5mn
     Bit rate mode                            : Constant
     Bit rate                                 : 448 Kbps
     Channel(s)                               : 6 channels
     Channel positions                        : Front: L C R, Side: L R, LFE
     Sampling rate                            : 48.0 KHz
     Bit depth                                : 16 bits
     Compression mode                         : Lossy
     Delay relative to video                  : 16ms
     Stream size                              : 402 MiB (9%)
     Title                                    : D!D
     Language                                 : Hindi
     Default                                  : Yes
     Forced                                   : No
     
     Text
     ID                                       : 3
     Format                                   : VobSub
     Muxing mode                              : zlib
     Codec ID                                 : S_VOBSUB
     Codec ID/Info                            : The same subtitle format used on DVDs
     Title                                    : D!D
     Language                                 : Hindi
     Default                                  : Yes
     Forced                                   : No














    SINGLE DIRECT FAST LINK


    Code:
    http://extabit.com/file/2dvlv84ltenje/Vicky Donor - 2012 - DVDRip - 1080p - x264 - ESub - [D!D] .mkv

    1GB LINKS



    Code:
    http://www.netload.in/datei3TfPQVbU1c/Vicky Donor - 2012 - DVDRip - 1080p - x264 - ESub - [D!D] .mkv.001.htm
    http://www.netload.in/datei68HfduzSnm/Vicky Donor - 2012 - DVDRip - 1080p - x264 - ESub - [D!D] .mkv.002.htm
    http://www.netload.in/dateizaGwfz3Nyq/Vicky Donor - 2012 - DVDRip - 1080p - x264 - ESub - [D!D] .mkv.003.htm
    http://www.netload.in/dateiF3D5Vp61FE/Vicky Donor - 2012 - DVDRip - 1080p - x264 - ESub - [D!D] .mkv.004.htm
    http://www.netload.in/dateiMhobO8efqX/Vicky Donor - 2012 - DVDRip - 1080p - x264 - ESub - [D!D] .mkv.005.htm
    http://www.netload.in/dateiOCh91ZexgT/Vicky Donor - 2012 - DVDRip - 1080p - x264 - ESub - [D!D] .mkv.006.htm
    http://www.netload.in/dateiYb5T7l0BQx/Vicky Donor - 2012 - DVDRip - 1080p - x264 - ESub - [D!D] .mkv.007.htm

    Code:
    http://extabit.com/file/2dvlv84lofk6y/Vicky Donor - 2012 - DVDRip - 1080p - x264 - ESub - [D!D] .mkv.001
    http://extabit.com/file/2dvlv84lofaka/Vicky Donor - 2012 - DVDRip - 1080p - x264 - ESub - [D!D] .mkv.002
    http://extabit.com/file/2dvlv84lofakq/Vicky Donor - 2012 - DVDRip - 1080p - x264 - ESub - [D!D] .mkv.003
    http://extabit.com/file/2dvlv84lofapm/Vicky Donor - 2012 - DVDRip - 1080p - x264 - ESub - [D!D] .mkv.004
    http://extabit.com/file/2dvlv84lof4ay/Vicky Donor - 2012 - DVDRip - 1080p - x264 - ESub - [D!D] .mkv.005
    http://extabit.com/file/2dvlv84lofane/Vicky Donor - 2012 - DVDRip - 1080p - x264 - ESub - [D!D] .mkv.006
    http://extabit.com/file/2dvlv84loei3u/Vicky Donor - 2012 - DVDRip - 1080p - x264 - ESub - [D!D] .mkv.007


 

 

Posting Permissions

  • You may not post new threads
  • You may not post replies
  • You may not post attachments
  • You may not edit your posts
  •