Results 1 to 1 of 1
  1. #1
    Hot Member www.desirulez.net
    Join Date
    Feb 2011
    Location
    Bulletproof IP
    Posts
    1,189

    Default Arjun The Warrior Prince (2012) - 1CD DVDRip - XviD - AC3 - [TDT]

    Follow us on Social Media





    Arjun
    The Warrior Prince
    1CD DVDRip - XviD - AC3 - [TDT]
    (2012)





    Code:
    IMDB :- http://www.imdb.com/title/tt2404027/
    
    Source :- TDT
    Ripper & Uploader :- My Self [ SAIF ]
    RIP INFO:-
    Code:
    General
    Format                                   : AVI
    Format/Info                              : Audio Video Interleave
    File size                                : 721 MiB
    Duration                                 : 1h 35mn
    Overall bit rate                         : 1 051 Kbps
    
    Video
    ID                                       : 0
    Format                                   : MPEG-4 Visual
    Format profile                           : Advanced [email protected]
    Format settings, BVOP                    : 1
    Format settings, QPel                    : No
    Format settings, GMC                     : No warppoints
    Format settings, Matrix                  : Default (H.263)
    Muxing mode                              : Packed bitstream
    Codec ID                                 : XVID
    Codec ID/Hint                            : XviD
    Duration                                 : 1h 35mn
    Bit rate                                 : 819 Kbps
    Width                                    : 640 pixels
    Height                                   : 272 pixels
    Display aspect ratio                     : 2.35:1
    Frame rate                               : 23.976 fps
    Color space                              : YUV
    Chroma subsampling                       : 4:2:0
    Bit depth                                : 8 bits
    Scan type                                : Progressive
    Compression mode                         : Lossy
    Bits/(Pixel*Frame)                       : 0.196
    Stream size                              : 562 MiB (78%)
    Writing library                          : XviD 1.2.1 (UTC 2008-12-04)
    
    Audio
    ID                                       : 1
    Format                                   : AC-3
    Format/Info                              : Audio Coding 3
    Mode extension                           : CM (complete main)
    Codec ID                                 : 2000
    Duration                                 : 1h 35mn
    Bit rate mode                            : Constant
    Bit rate                                 : 224 Kbps
    Channel(s)                               : 2 channels
    Channel positions                        : Front: L R
    Sampling rate                            : 48.0 KHz
    Bit depth                                : 16 bits
    Compression mode                         : Lossy
    Stream size                              : 154 MiB (21%)
    Alignment                                : Aligned on interleaves
    Interleave, duration                     : 64 ms (1.53 video frames)
    Interleave, preload duration             : 192 ms
    Title                                    : VTS_02_1 T81 2_0ch 224Kbps DELAY -49ms















    All Credits Goes To SAIF @ TDT (Thanks)

    File Size: 721.44MB

    Code:
    http://turbobit.net/9evkve4ow5aq/Arjun-TheWarriorPrince2012_-_1CD-DVDRip-XviD-AC3-TDT.avi.html
    or
    http://extabit.com/file/27a3tv3gtli32/Arjun-TheWarriorPrince2012_-_1CD-DVDRip-XviD-AC3-TDT.avi
    or
    http://www.filefactory.com/file/5ubt01pnpvv5/n/Arjun-TheWarriorPrince2012_-_1CD-DVDRip-XviD-AC3-TDT.avi
    Re-upload Service is [ON] for 15 days

 

 

Posting Permissions

  • You may not post new threads
  • You may not post replies
  • You may not post attachments
  • You may not edit your posts
  •