Results 1 to 1 of 1
  1. #1
    Banned www.desirulez.net
    Join Date
    Jun 2012
    Posts
    108

    Default Dangerous Ishhq 2D [2012] DVDRip - 1CD - 480p - x264

    Follow us on Social Media









    Code:
    
    Format                                   : Matroska Format version                           : Version 2 File size                                : 697 MiB Duration                                 : 2h 3mn Overall bit rate                         : 791 Kbps Movie name                               : Dangerous Ishhq 2D [2012] 1CD - x264 - MP3 - By [email protected] [EXDT Exclusive] Encoded date                             : UTC 2012-06-28 08:51:17  Format                                   : AVC Format/Info                              : Advanced Video Codec Format profile                           : [email protected] Format settings, CABAC                   : Yes Format settings, ReFrames                : 4 frames Muxing mode                              : Header stripping Codec ID                                 : V_MPEG4/ISO/AVC Duration                                 : 2h 3mn Bit rate                                 : 694 Kbps Width                                    : 720 pixels Height                                   : 320 pixels Display aspect ratio                     : 2.25:1 Frame rate                               : 25.000 fps Color space                              : YUV Chroma subsampling                       : 4:2:0 Bit depth                                : 8 bits Scan type                                : Progressive Bits/(Pixel*Frame)                       : 0.120 Stream size                              : 598 MiB (86%) Writing library                          : x264 core 120 r2164 da19765  Format                                   : MPEG Audio Format version                           : Version 1 Format profile                           : Layer 3 Mode                                     : Joint stereo Mode extension                           : MS Stereo Muxing mode                              : Header stripping Codec ID                                 : A_MPEG/L3 Codec ID/Hint                            : MP3 Duration                                 : 2h 3mn Bit rate mode                            : Constant Bit rate                                 : 96.0 Kbps Channel(s)                               : 2 channels Sampling rate                            : 32.0 KHz Compression mode                         : Lossy Stream size                              : 84.5 MiB (12%) Writing library                          : LAME3.99r










    Single Links Download
    JumboFile | FreakShare | BitShare | FileFactory


 

 

Posting Permissions

  • You may not post new threads
  • You may not post replies
  • You may not post attachments
  • You may not edit your posts
  •