Results 1 to 1 of 1
  1. #1
    dR Rockers www.desirulez.net
    Join Date
    Dec 2010
    Posts
    847

    Default Ferari Ki Sawari (2012) - 1Cd - DvdScr - Rip - Xvid - MP3[TDT]

    Follow us on Social Media







    Ferrari Ki Sawaari [2012] 1Cd-Dvd_Scr-RIP By [~SAIF~] [~TDT~]





    [LEFT]
    [code]General
    Complete name : D:\MultiMedia\Movies\Hindi\Ferrari Ki Sawaari [2012] 1Cd-Dvd_Scr-RIP By [~SAIF~] [~TDT~]\Ferrari Ki Sawaari [2012] 1Cd-Dvd_Scr-RIP By [~SAIF~] [~TDT~].avi
    Format : AVI
    Format/Info : Audio Video Interleave
    File size : 699 MiB
    Duration : 2h 6mn
    Overall bit rate : 773 Kbps
    Writing library : VirtualDub build 32842/release

    Video
    ID : 0
    Format : MPEG-4 Visual
    Format profile : Advanced [email protected]
    Format settings, BVOP : 1
    Format settings, QPel : No
    Format settings, GMC : No warppoints
    Format settings, Matrix : Default (H.263)
    Muxing mode : Packed bitstream
    Codec ID : XVID
    Codec ID/Hint : XviD
    Duration : 2h 6mn
    Bit rate : 636 Kbps
    Width : 688 pixels
    Height : 288 pixels
    Display aspect ratio : 2.40:1
    Frame rate : 23.976 fps
    Color space : YUV
    Chroma subsampling : 4:2:0
    Bit depth : 8 bits
    Scan type : Progressive
    Compression mode : Lossy
    Bits/(Pixel*Frame) : 0.134
    Stream size : 575 MiB (82%)
    Writing library : XviD 1.2.1 (UTC 2008-12-04)

    Audio
    ID : 1
    Format : MPEG Audio
    Format version : Version 1
    Format profile : Layer 3
    Mode : Joint stereo
    Mode extension : MS Stereo
    Codec ID : 55
    Codec ID/Hint : MP3
    Duration : 2h 6mn
    Bit rate mode : Constant
    Bit rate : 128 Kbps
    Channel(s) : 2 channels
    Sampling rate : 48.0 KHz
    Compression mode : Lossy
    Stream size : 116 MiB (17%)
    Alignment : Split accross interleaves
    Interleave, duration : 42 ms (1.00 video frame)
    Interleave, preload duration : 500 ms
    Writing library : LAME3.99r
    Encoding settings : -m j -V 4 -q 2 -lowpass 17 -b 128






























    SAMPLE


    Single Link:
    Code:
    
    http://turbobit.net/eyqdlim3yx5x.html
    





 

 

Posting Permissions

  • You may not post new threads
  • You may not post replies
  • You may not post attachments
  • You may not edit your posts
  •