Results 1 to 1 of 1
  1. #1
    Banned www.desirulez.net
    Join Date
    Feb 2011
    Posts
    2,003

    Default Tolly Lights(2008)(18+) - 1CD - DVDRIP - Xvid - Mp3 - TDT

    Follow us on Social Media





    Tolly Lights(2008)(18+) - 1CD - DVDRIP - Xvid - Mp3 - TDT



    Directed by : Arjun Chakraborty
    Written by : Suchitra Bhattacharya
    Starring : Sreelekha Mitra, Arjun Chakraborty n Many More...
    Release date : 29 February 2008

    General
    Complete name : Tollylights -- DvDRip 694MB -- TDT -- By James.avi
    Format : AVI
    Format/Info : Audio Video Interleave
    File size : 694 MiB
    Duration : 1h 55mn
    Overall bit rate : 842 Kbps

    Video
    ID : 0
    Format : MPEG-4 Visual
    Format profile : Advanced [email protected]
    Format settings, BVOP : 2
    Format settings, QPel : No
    Format settings, GMC : No warppoints
    Format settings, Matrix : Default (H.263)
    Codec ID : XVID
    Codec ID/Hint : XviD
    Duration : 1h 55mn
    Bit rate : 717 Kbps
    Width : 640 pixels
    Height : 272 pixels
    Display aspect ratio : 2.35:1
    Frame rate : 29.970 fps
    Color space : YUV
    Chroma subsampling : 4:2:0
    Bit depth : 8 bits
    Scan type : Progressive
    Compression mode : Lossy
    Bits/(Pixel*Frame) : 0.137
    Stream size : 591 MiB (85%)
    Writing library : XviD 1.2.1 (UTC 2008-12-04)

    Audio
    ID : 1
    Format : MPEG Audio
    Format version : Version 1
    Format profile : Layer 3
    Codec ID : 55
    Codec ID/Hint : MP3
    Duration : 1h 55mn
    Bit rate mode : Constant
    Bit rate : 112 Kbps
    Channel(s) : 2 channels
    Sampling rate : 44.1 KHz
    Compression mode : Lossy
    Stream size : 92.3 MiB (13%)
    Alignment : Split accross interleaves
    Interleave, duration : 26 ms (0.78 video frame)

    Source : Supex






    For Getting High Speed Download speeed Pls Purchase Premium From this Link And Support me By Providing More Quality Releases
    Code:
    http://www.filefactory.com/file/5c1ji1o3pjl3/n/TLTS.avi
    
    http://extabit.com/file/27b6pcbysoau1
    Single Link
    Code:
    http://rapidgator.net/file/18771767/TLTS.avi.html
    
    http://lumfile.com/j2w3e8gu1iwo/TLTS.avi.html

 

 

Posting Permissions

  • You may not post new threads
  • You may not post replies
  • You may not post attachments
  • You may not edit your posts
  •