Results 1 to 1 of 1
  1. #1
    Banned www.desirulez.net
    Join Date
    Feb 2011
    Posts
    2,003

    Default [email protected] Cafe (2012) - 1CD - Lotus DVDRIP - Xvid - Mp3 - TEAM IST

    Follow us on Social Media





    [email protected] Cafe (2012) - 1CD - Lotus DVDRIP - Xvid - Mp3 - TEAM IST



    Code:
    Video
    ID                               : 0
    Format                           : MPEG-4 Visual
    Format profile                   : Advanced [email protected]
    Format settings, BVOP            : 2
    Format settings, QPel            : No
    Format settings, GMC             : No warppoints
    Format settings, Matrix          : Default (H.263)
    Codec ID                         : XVID
    Codec ID/Hint                    : XviD
    Duration                         : 2h 29mn
    Bit rate                         : 575 Kbps
    Width                            : 624 pixels
    Height                           : 256 pixels
    Display aspect ratio             : 2.40:1
    Frame rate                       : 29.970 fps
    Color space                      : YUV
    Chroma subsampling               : 4:2:0
    Bit depth                        : 8 bits
    Scan type                        : Progressive
    Compression mode                 : Lossy
    Bits/(Pixel*Frame)               : 0.120
    Stream size                      : 615 MiB (84%)
    Writing library                  : XviD 1.2.1 (UTC 2008-12-04)
    
    Audio
    ID                               : 1
    Format                           : MPEG Audio
    Format version                   : Version 1
    Format profile                   : Layer 3
    Mode                             : Joint stereo
    Mode extension                   : MS Stereo
    Codec ID                         : 55
    Codec ID/Hint                    : MP3
    Duration                         : 2h 29mn
    Bit rate mode                    : Variable
    Bit rate                         : 96.0 Kbps
    Channel(s)                       : 2 channels
    Sampling rate                    : 32.0 KHz
    Compression mode                 : Lossy
    Stream size                      : 101 MiB (14%)
    Alignment                        : Aligned on interleaves
    Interleave, duration             : 36 ms (1.08 video frame)
    Interleave, preload duration     : 109 ms
    Title                            : sala T80 3_2ch 448Kbps DELAY 0ms
    Writing library                  : LAME3.99r










    For Getting High Speed Download speeed Pls Purchase Premium From this Link And Support me By Providing More Quality Releases
    Code:
    http://www.filefactory.com/file/phkp344fs2n/n/KKMC.avi
    
    http://extabit.com/file/27b6pbh0ksizv
    Single Link
    Code:
    http://www.queenshare.com/lqwigw8lu4tg
    
    http://lumfile.com/ikav9sxhsq2b/KKMC.avi.html
    
    http://rapidgator.net/file/18538770/KKMC.avi.html

 

 

Posting Permissions

  • You may not post new threads
  • You may not post replies
  • You may not post attachments
  • You may not edit your posts
  •