Results 1 to 1 of 1
  1. #1
    Hot Member www.desirulez.net
    Join Date
    Sep 2009
    Posts
    1,215

    Thumbs up Sheesha (2005) - Untouched - Dvd9 - Ntsc - Ibraram-=Drc=-

    Follow us on Social Media













    Code:
    Movie Name                   : Sheesha (2005)
    Imdb                         : http://www.imdb.com/title/tt0445056/
    wikipedia                    : http://en.wikipedia.org/wiki/Sheesha_(film)
    Language                     : Hindi 
    Distributor                  : VENUS
    Source                       : DVD9 @ Ibrarm @ DrC
    Ripper                       : Ibraram @ DrC
    Size                         : 5.93 GB
    Run Time                     : 136 min.
    Container                    : DVD 9
    Release Date                 : 11 February 2005 (India) 
    Genre                        : Drama | Romance | Thriller    
    Director                     : Ashu Trikha
    Writers                      : A. Muthu (story), Ashu Trikha (screenplay)
    Stars                        : Neha Dhupia, Elidh MacQueen and Niju Mavani 
    Lyricist                     : 
    Music                        : Dileep Sen, Sameer Sen
    Label                        : 
    User Rating                  : 4.7/10 from 91 users
    Code:
    Format                                   : MPEG-PS
    Overall bit rate                         : 6 003 Kbps
    
    Video
    ID                                       : 224 (0xE0)
    Format                                   : MPEG Video
    Format version                           : Version 2
    Format profile                           : [email protected]
    Format settings, BVOP                    : No
    Format settings, Matrix                  : Default
    Format settings, GOP                     : M=1, N=16
    Bit rate                                 : 5 500 Kbps
    Width                                    : 704 pixels
    Height                                   : 480 pixels
    Display aspect ratio                     : 16:9
    Frame rate                               : 29.970 fps
    Standard                                 : NTSC
    Color space                              : YUV
    Chroma subsampling                       : 4:2:0
    Bit depth                                : 8 bits
    Scan type                                : Interlaced
    Scan order                               : Top Field First
    Compression mode                         : Lossy
    Bits/(Pixel*Frame)                       : 0.543
    Stream size                              : 938 MiB (92%)
    Color primaries                          : BT.470-2 System B, BT.470-2 System G
    Transfer characteristics                 : BT.470-2 System B, BT.470-2 System G
    Matrix coefficients                      : BT.470-2 System B, BT.470-2 System G
    
    Audio
    ID                                       : 189 (0xBD)-128 (0x80)
    Format                                   : AC-3
    Format/Info                              : Audio Coding 3
    Mode extension                           : CM (complete main)
    Muxing mode                              : DVD-Video
    Duration                                 : 23mn 50s
    Bit rate mode                            : Constant
    Bit rate                                 : 384 Kbps
    Channel(s)                               : 6 channels
    Channel positions                        : Front: L C R, Side: L R, LFE
    Sampling rate                            : 48.0 KHz
    Bit depth                                : 16 bits
    Compression mode                         : Lossy
    Delay relative to video                  : -191ms
    Stream size                              : 65.5 MiB (6%)
    
    Text
    ID                                       : 189 (0xBD)-32 (0x20)
    Format                                   : RLE
    Format/Info                              : Run-length encoding
    Muxing mode                              : DVD-Video










    Code:
    http://rapidgator.net/file/18106336/Sheesha_(2005)_-_Untouched_-_DVD9_-_NTSC_-_Ibraram.part1.rar.html
    http://rapidgator.net/file/18106675/Sheesha_(2005)_-_Untouched_-_DVD9_-_NTSC_-_Ibraram.part2.rar.html
    http://rapidgator.net/file/18108355/Sheesha_(2005)_-_Untouched_-_DVD9_-_NTSC_-_Ibraram.part3.rar.html
    http://rapidgator.net/file/18108713/Sheesha_(2005)_-_Untouched_-_DVD9_-_NTSC_-_Ibraram.part4.rar.html
    http://rapidgator.net/file/18109497/Sheesha_(2005)_-_Untouched_-_DVD9_-_NTSC_-_Ibraram.part5.rar.html
    http://rapidgator.net/file/18111882/Sheesha_(2005)_-_Untouched_-_DVD9_-_NTSC_-_Ibraram.part6.rar.html
    
    http://turbobit.net/utp8776vtnap/Sheesha (2005) - Untouched - DVD9 - NTSC - Ibraram.part1.rar.html
    http://turbobit.net/67uqiluq0jhj/Sheesha (2005) - Untouched - DVD9 - NTSC - Ibraram.part2.rar.html
    http://turbobit.net/e5m6a2n1u8g1/Sheesha (2005) - Untouched - DVD9 - NTSC - Ibraram.part3.rar.html
    http://turbobit.net/f6w0jzbctggh/Sheesha (2005) - Untouched - DVD9 - NTSC - Ibraram.part4.rar.html
    http://turbobit.net/72et9dg4zvdu/Sheesha (2005) - Untouched - DVD9 - NTSC - Ibraram.part5.rar.html
    http://turbobit.net/278jubvgqcgx/Sheesha (2005) - Untouched - DVD9 - NTSC - Ibraram.part6.rar.html





 

 

Posting Permissions

  • You may not post new threads
  • You may not post replies
  • You may not post attachments
  • You may not edit your posts
  •