Results 1 to 1 of 1
  1. #1
    dR Dazzler www.desirulez.net
    Join Date
    Mar 2009
    Posts
    1,518

    Default Pacquiao vs Bradley 2012 480p HDTV x264 AC3-ADTRG

    Follow us on Social Media





    Pacquiao vs Bradley 2012 480p HDTV x264 AC3-ADTRG



    Code:
    Pacquiao.vs.Bradley.2012.480p.HDTV.x264.AC3-ADTRG
    
    General Information
    
    Complete name : Pacquiao.vs.Bradley.2012.480p.HDTV.x264.AC3-ADTRG.mkv
    Format : Matroska
    Format version : Version 2
    File size : 716 MiB
    Duration : 59mn 31s
    Overall bit rate : 1 683 Kbps
    Movie name : Pacquiao.vs.Bradley.2012.480p.HDTV.x264.AC3-ADTRG
    Encoded date : UTC 2012-06-10 07:14:42
    Writing application : mkvmerge v5.4.0 ('Piper') built on Mar 10 2012 13:34:39
    Writing library : libebml v1.2.3 + libmatroska v1.3.0
    
    Video Information
    
    ID : 1
    Format : AVC
    Format/Info : Advanced Video Codec
    Format profile : [email protected]
    Bit rate : 1 500 Kbps
    Width : 852 pixels
    Height : 478 pixels
    Display aspect ratio : 16:9
    Frame rate : 25.000 fps
    Stream size : 620 MiB (87%)
    
    Audio Information
    
    ID : 2
    Format : AC-3
    Bit rate : 192 Kbps
    Channel(s) : 2 channels
    Channel positions : Front: L R
    Sampling rate : 48.0 KHz
    Stream size : 81.7 MiB (11%)
    Language : English

    Code:
    http://rapidgator.net/file/17256364/Pacquiao.vs.Bradley.2012.480p.HDTV.x264.AC3-ADTRG.mkv.html
    
    http://www.filefactory.com/file/37ezrj32bjkl/n/Pacquiao_vs_Bradley_2012_480p_HDTV_x264_AC3-ADTRG_mkv
    
    http://coraldrive.net/sjv3vmralc20/Pacquiao.vs.Bradley.2012.480p.HDTV.x264.AC3-ADTRG.mkv
    
    http://turbobit.net/ko46vb6a3gvm.html

 

 

Posting Permissions

  • You may not post new threads
  • You may not post replies
  • You may not post attachments
  • You may not edit your posts
  •