Results 1 to 1 of 1
  1. #1
    Coolbie www.desirulez.net
    Join Date
    Nov 2011
    Location
    Hyderabad
    Posts
    722

    Default Watch And Download Shanghai 2012 Hindi Movie Online

    Follow us on Social Media








    Code:
    General
    Complete name                    : C:\Users\ASHISH\Downloads\Compressed\SHANGHAI..2012.Scamrip.By.AK247.MPG
    Format                           : MPEG-PS
    File size                        : 589 MiB
    Duration                         : 1h 45mn
    Overall bit rate                 : 783 Kbps
    
    Video
    ID                               : 224 (0xE0)
    Format                           : MPEG Video
    Format version                   : Version 2
    Format profile                   : [email protected]
    Format settings, BVOP            : Yes
    Format settings, Matrix          : Default
    Format settings, GOP             : M=3, N=12
    Duration                         : 1h 45mn
    Bit rate mode                    : Variable
    Bit rate                         : 639 Kbps
    Nominal bit rate                 : 2 519 Mbps
    Width                            : 352 pixels
    Height                           : 288 pixels
    Display aspect ratio             : 16:9
    Frame rate                       : 25.000 fps
    Standard                         : PAL
    Color space                      : YUV
    Chroma subsampling               : 4:2:0
    Bit depth                        : 8 bits
    Scan type                        : Progressive
    Compression mode                 : Lossy
    Bits/(Pixel*Frame)               : 0.252
    Stream size                      : 481 MiB (82%)
    
    Audio
    ID                               : 192 (0xC0)
    Format                           : MPEG Audio
    Format version                   : Version 1
    Format profile                   : Layer 2
    Duration                         : 1h 45mn
    Bit rate mode                    : Constant
    Bit rate                         : 128 Kbps
    Channel(s)                       : 2 channels
    Sampling rate                    : 44.1 KHz
    Compression mode                 : Lossy
    Stream size                      : 96.4 MiB (16%)







    Code:
    http://hipfile.com/6h8yl6lpwhju/sangai.avi.html
    http://www.vidpe.com/2qicrtigjlsj.html
    Please add reputation points if you like the post. This encourages us. Simply click star mark on left of this post then ADD to Reputation, thats it

 

 

Tags for this Thread

Posting Permissions

  • You may not post new threads
  • You may not post replies
  • You may not post attachments
  • You may not edit your posts
  •