Results 1 to 1 of 1
  1. #1
    Hot Member www.desirulez.net
    Join Date
    Sep 2009
    Posts
    1,215

    Thumbs up Shanghai.{2012}.Untouched.Super.CamRip.By.AK247

    Follow us on Social Media








    Code:
    General
    Complete name                    : C:\Users\ASHISH\Downloads\Compressed\SHANGHAI..2012.Scamrip.By.AK247.MPG
    Format                           : MPEG-PS
    File size                        : 589 MiB
    Duration                         : 1h 45mn
    Overall bit rate                 : 783 Kbps
    
    Video
    ID                               : 224 (0xE0)
    Format                           : MPEG Video
    Format version                   : Version 2
    Format profile                   : [email protected]
    Format settings, BVOP            : Yes
    Format settings, Matrix          : Default
    Format settings, GOP             : M=3, N=12
    Duration                         : 1h 45mn
    Bit rate mode                    : Variable
    Bit rate                         : 639 Kbps
    Nominal bit rate                 : 2 519 Mbps
    Width                            : 352 pixels
    Height                           : 288 pixels
    Display aspect ratio             : 16:9
    Frame rate                       : 25.000 fps
    Standard                         : PAL
    Color space                      : YUV
    Chroma subsampling               : 4:2:0
    Bit depth                        : 8 bits
    Scan type                        : Progressive
    Compression mode                 : Lossy
    Bits/(Pixel*Frame)               : 0.252
    Stream size                      : 481 MiB (82%)
    
    Audio
    ID                               : 192 (0xC0)
    Format                           : MPEG Audio
    Format version                   : Version 1
    Format profile                   : Layer 2
    Duration                         : 1h 45mn
    Bit rate mode                    : Constant
    Bit rate                         : 128 Kbps
    Channel(s)                       : 2 channels
    Sampling rate                    : 44.1 KHz
    Compression mode                 : Lossy
    Stream size                      : 96.4 MiB (16%)







    Code:
    http://www.filefactory.com/file/bf5npvv34lh/n/SHANGHAI_2012_Scamrip_By_AK247_MPG
    
    http://depositfiles.com/files/58yeiok3s
    
    http://www.queenshare.com/mzp5okasvnsu
    
    http://turbobit.net/wie2uoxhcfaz/SHANGHAI..2012.Scamrip.By.AK247.MPG.html
    
    http://coraldrive.net/txhkrb6qdeqb/SHANGHAI..2012.Scamrip.By.AK247.MPG
    
    http://cramit.in/s4wk5c9yy936



 

 

Posting Permissions

  • You may not post new threads
  • You may not post replies
  • You may not post attachments
  • You may not edit your posts
  •