Results 1 to 2 of 2
  1. #1

    Wink Yeh Mera Prem Patra Padh Kar (Sangam) - DVDRip - Xvid - AC3 5.1 Video

    Follow us on Social Media







    Yeh Mera Prem Patra Padh Kar (Sangam) - DVDRip - Xvid - AC3 5.1 Video





    Code:
    Source                           : Romance Forever DVD9 [Thanks to DrG]
    
    Format                           : AVI
    Format/Info                      : Audio Video Interleave
    File size                        : 143 MiB
    Duration                         : 6mn 23s
    Overall bit rate                 : 3 116 Kbps
    Writing application              : VirtualDubMod 1.5.10.2 (build 2542/release)
    Writing library                  : VirtualDubMod build 2542/release
    
    Video
    Format                           : MPEG-4 Visual
    Format profile                   : Simple Streaming [email protected]
    Format settings, BVOP            : Yes
    Format settings, QPel            : No
    Format settings, GMC             : No warppoints
    Format settings, Matrix          : Default
    Muxing mode                      : Packed bitstream
    Codec ID                         : XVID
    Codec ID/Hint                    : XviD
    Duration                         : 6mn 23s
    Bit rate                         : 2 720 Kbps
    Width                            : 656 pixels
    Height                           : 448 pixels
    Display aspect ratio             : 1.464
    Frame rate                       : 29.970 fps
    Resolution                       : 24 bits
    Colorimetry                      : 4:2:0
    Scan type                        : Progressive
    Bits/(Pixel*Frame)               : 0.309
    Stream size                      : 124 MiB (87%)
    Writing library                  : XviD 1.2.1 (UTC 2008-12-04)
    
    Audio
    Format                           : AC-3
    Format/Info                      : Audio Coding 3
    Codec ID                         : 2000
    Duration                         : 6mn 23s
    Bit rate mode                    : Constant
    Bit rate                         : 384 Kbps
    Channel(s)                       : 6 channels
    Channel positions                : Front: L C R, Surround: L R, LFE
    Sampling rate                    : 48.0 KHz
    Stream size                      : 17.6 MiB (12%)
    Alignment                        : Aligned on interleaves
    Interleave, duration             : 33 ms (1.00 video frame)
    Interleave, preload duration     : 512 ms
    
    
    Credits Goes To Original Ripper





















    Rapidshare:
    Code:
    http://rapidshare.com/files/238107066/Yeh_Mera_Prem_Patra_Padh_Kar.By.TuhiN.TeaM.SparkaR.avi


    Uploaded.to:
    Code:
    http://ul.to/j9zvwo/Yeh_Mera_Prem_Patra_Padh_Kar.By.TuhiN.TeaM.SparkaR.avi

  2. #2
    Hot Member www.desirulez.net
    Join Date
    Apr 2009
    Location
    London
    Posts
    1,924

    Default

    haha nice movie........

 

 

Posting Permissions

  • You may not post new threads
  • You may not post replies
  • You may not post attachments
  • You may not edit your posts
  •