Results 1 to 1 of 1
  1. #1
    shawn rebecca
    Guest

    Default WWE NXT 2012 06 06 Webrip SR

    Follow us on Social Media





    WWE NXT 2012 06 06 Webrip SR


    Source: yt wwe official
    49:51 min
    File size : 307 MiB
    Duration : 46mn 17s
    Overall bit rate : 929 Kbps
    httphostheader : v16.nonxt3.c.youtube.com

    Video
    Format : AVC
    Format/Info : Advanced Video Codec
    Format profile : [email protected]
    Format settings, CABAC : Yes
    Format settings, ReFrames : 3 frames
    Codec ID : 7
    Duration : 46mn 17s
    Bit rate : 791 Kbps
    Width : 638 pixels
    Height : 360 pixels
    Display aspect ratio : 16:9
    Frame rate mode : Constant
    Frame rate : 29.970 fps
    Color space : YUV
    Chroma subsampling : 4:2:0
    Bit depth : 8 bits
    Scan type : Progressive
    Bits/(Pixel*Frame) : 0.115
    Stream size : 262 MiB (85%)

    Audio
    Format : AAC
    Format/Info : Advanced Audio Codec
    Format profile : LC
    Codec ID : 10
    Duration : 46mn 17s
    Bit rate : 129 Kbps
    Channel(s) : 2 channels
    Channel positions : Front: L R
    Sampling rate : 44.1 KHz
    Compression mode : Lossy
    Stream size : 42.6 MiB (14%)

    Sinlge LiNK DownLOAD

    Code:
    http://filemates.com/9cx13krxomhh/WWE.NXT.2012.06.06.Webrip-SR.FLV
    Code:
    http://www.filefactory.com/file/1rtm2ubn89d1/n/WWE.NXT.2012.06.06.Webrip-SR.FLV
    Code:
    http://rapidgator.net/file/16022388/WWE.NXT.2012.06.06.Webrip-SR.FLV.html
    Code:
    http://turbobit.net/z0d4nl4ru2qf/WWE.NXT.2012.06.06.Webrip-SR.FLV.html
    Code:
    http://ul.to/papvgxro/WWE.NXT.2012.06.06.Webrip-SR.FLV

 

 

Posting Permissions

  • You may not post new threads
  • You may not post replies
  • You may not post attachments
  • You may not edit your posts
  •