Results 1 to 1 of 1
  1. #1
    dR Rockers www.desirulez.net
    Join Date
    Jan 2011
    Posts
    1,330

    Default Rowdy Rathore (2012) (Hindi) DVDScr XviD 1CDRip (DDR-ExclusivE)

    Follow us on Social Media





    Rowdy Rathore (2012) (Audio Cleaned) - DVDScr - XviD - 1CDRip - [DDR-ExclusivE]



    Info:

    Rowdy Rathore (2012)

    Link:
    Code:
    http://www.imdb.com/title/tt2077833/
    Plot:Shiva (Akshay Kumar) is a small time conman in love with Priya (Sonakshi Sinha), a pretty girl whom he met at a wedding he wasn't invited to. Into this picture perfect world enters six year old Neha who inexplicably believes Shiva to be her dad! And if this wasn't bad enough, Shiva also becomes the object of a series of life threatening attacks by a gang of deadly criminals who seem to know something he doesn't. While trying desperately to save his life and love, Shiva stumbles upon a deadly secret. A secret that will take him to a small town in Bihar; a town terrorized by a ruthless politician and the mafia he controls; a town whose inhabitants only hope for redemption is ... Shiva!
    Video Info:

    Format : AVI
    Format/Info: Audio Video Interleave
    File size: 696 MiB
    Duration : 2h 23mn
    Overall bit rate : 680 Kbps
    Writing application: VirtualDubMod 1.5.10.3 | www.virtualdub-fr.org || (build 2550/release)
    Writing library: VirtualDubMod build 2550/release

    Video
    ID : 0
    Format : MPEG-4 Visual
    Format profile : Advanced [email protected]
    Format settings, BVOP: 1
    Format settings, QPel: No
    Format settings, GMC : No warppoints
    Format settings, Matrix: Custom
    Codec ID : XVID
    Codec ID/Hint: XviD
    Duration : 2h 23mn
    Bit rate : 590 Kbps
    Width: 624 pixels
    Height : 272 pixels
    Display aspect ratio : 2.25:1
    Frame rate : 25.000 fps
    Color space: YUV
    Chroma subsampling : 4:2:0
    Bit depth: 8 bits
    Scan type: Progressive
    Compression mode : Lossy
    Bits/(Pixel*Frame) : 0.139
    Stream size: 604 MiB (87%)
    Writing library: XviD 1.2.1 (UTC 2008-12-04)

    Audio
    ID : 1
    Format : MPEG Audio
    Format version : Version 2
    Format profile : Layer 3
    Mode : Joint stereo
    Mode extension : Intensity Stereo + MS Stereo
    Codec ID : 55
    Codec ID/Hint: MP3
    Duration : 2h 23mn
    Bit rate mode: Constant
    Bit rate : 80.0 Kbps
    Channel(s) : 2 channels
    Sampling rate: 24.0 KHz
    Compression mode : Lossy
    Stream size: 81.9 MiB (12%)
    Alignment: Aligned on interleaves
    Interleave, duration : 40 ms (1.00 video frame)
    Interleave, preload duration : 504 ms






    Links:

    Bayfiles Download Links:
    Code:
    http://bayfiles.com/file/bXOr/CGGfUm/Rowdy_Rathore_-_DVDScr_-_XviD_-_1CDRip_-_%5BDDR%5D.avi
    Filefactory Download Links:
    Code:
    http://www.filefactory.com/file/152eqllkkb4l/n/Rowdy_Rathore_-_DVDScr_-_XviD_-_1CDRip_-_[DDR].avi
    Letitbit Download Links:
    Code:
    http://letitbit.net/download/42014.48d2461f9e21f2934f968a9cfb02/Rowdy_Rathore_-_DVDScr_-_XviD_-_1CDRip_-__DDR_.avi.html
    Turbobit Download Links:
    Code:
    http://turbobit.net/3r9dxx2liuoj.html
    Uploaded.to Download Links:
    Code:
    http://uploaded.to/file/u3tcyjeh
    All credits to the original uploader. If you like my post, dont forget to say thanks.

 

 

Posting Permissions

  • You may not post new threads
  • You may not post replies
  • You may not post attachments
  • You may not edit your posts
  •