Results 1 to 1 of 1
  1. #1
    Banned www.desirulez.net
    Join Date
    Feb 2011
    Posts
    2,003

    Default Vicky Donor (2012) - 1/5DVD - DVDSCR Rip - Xvid - AC3 - Team TDT

    Follow us on Social Media





    Vicky Donor (2012) - 1/5DVD - DVDSCR Rip - Xvid - AC3 - Team TDT




    Code:
    Format : AVI
    File size : 896 MiB
    Duration : 2h 1mn
    Overall bit rate : 1 034 Kbps
    Source : DvDScr @ Team ICTV.
    Ripper : KINGFISHER [~TDT~].
      Quote:
    Video
    
    Codec ID : XVID
    Duration : 2h 1mn
    Bit rate : 897 Kbps
    Width : 656 pixels
    Height : 336 pixels
    Display aspect ratio : 1.952
    Frame rate : 23.976 fps
    Bits/(Pixel*Frame) : 0.170
    Stream size : 777 MiB (87%)
    
    Audio
    
    Duration : 2h 1mn
    Bit rate mode : Constant
    Bit rate : 128 Kbps
    Channel(s) : 2 channels
    Sampling rate : 48.0 KHz
    Stream size : 111 MiB (12%)














    For Getting High Speed Download speeed Pls Purchase Premium From this Link And Support me By Providing More Quality Releases
    Code:
    http://www.filefactory.com/file/2ao4w39jnopv/n/VCDN.avi
    
    http://extabit.com/file/27b6d0ls4564y
    
    http://coraldrive.net/mz4wb4ghucxu/VCDN.avi
    Single Link
    Code:
    http://turbobit.net/dtrco8ttdcqi.html

 

 

Posting Permissions

  • You may not post new threads
  • You may not post replies
  • You may not post attachments
  • You may not edit your posts
  •