Results 1 to 1 of 1
  1. #1
    Banned www.desirulez.net
    Join Date
    Feb 2011
    Posts
    2,003

    Default Urimi(2012) - 500MB - DVDSCR RIp - X264 - AAC - Team IST

    Follow us on Social Media





    Urimi(2012) - 500MB - DVDSCR RIp - X264 - AAC - Team IST



    Code:
    Format                                   : MPEG-4
    Format profile                           : Base Media
    Codec ID                                 : isom
    File size                                : 498 MiB
    Duration                                 : 2h 13mn
    Overall bit rate mode                    : Variable
    Overall bit rate                         : 522 Kbps
    Encoded date                             : UTC 2012-05-27 03:48:27
    Tagged date                              : UTC 2012-05-27 03:48:27
    
    Video
    ID                                       : 1
    Format                                   : AVC
    Format/Info                              : Advanced Video Codec
    Format profile                           : [email protected]
    Format settings, CABAC                   : Yes
    Format settings, ReFrames                : 4 frames
    Codec ID                                 : avc1
    Codec ID/Info                            : Advanced Video Coding
    Duration                                 : 2h 13mn
    Bit rate                                 : 473 Kbps
    Maximum bit rate                         : 3 896 Kbps
    Width                                    : 640 pixels
    Height                                   : 272 pixels
    Display aspect ratio                     : 2.35:1
    Frame rate mode                          : Constant
    Frame rate                               : 29.970 fps
    Color space                              : YUV
    Chroma subsampling                       : 4:2:0
    Bit depth                                : 8 bits
    Scan type                                : Progressive
    Bits/(Pixel*Frame)                       : 0.091
    Stream size                              : 449 MiB (90%)
    Writing library                          : x264 core 120 r2164 da19765
    Encoding settings                        : cabac=1 / ref=3 / deblock=1:0:0 / analyse=0x3:0x113 / me=hex / subme=7 / psy=1 / psy_rd=1.00:0.00 / mixed_ref=1 / me_range=16 / chroma_me=1 / trellis=1 / 8x8dct=1 / cqm=0 / deadzone=21,11 / fast_pskip=1 / chroma_qp_offset=-2 / threads=6 / sliced_threads=0 / nr=0 / decimate=1 / interlaced=0 / bluray_compat=0 / constrained_intra=0 / bframes=3 / b_pyramid=2 / b_adapt=1 / b_bias=0 / direct=1 / weightb=1 / open_gop=0 / weightp=2 / keyint=300 / keyint_min=29 / scenecut=40 / intra_refresh=0 / rc_lookahead=40 / rc=abr / mbtree=1 / bitrate=473 / ratetol=1.0 / qcomp=0.60 / qpmin=0 / qpmax=69 / qpstep=4 / ip_ratio=1.40 / aq=1:1.00
    Encoded date                             : UTC 2012-05-27 02:48:09
    Tagged date                              : UTC 2012-05-27 03:48:47
    
    Audio
    ID                                       : 2
    Format                                   : AAC
    Format/Info                              : Advanced Audio Codec
    Format profile                           : HE-AAC / LC
    Codec ID                                 : 40
    Duration                                 : 2h 13mn
    Bit rate mode                            : Variable
    Bit rate                                 : 48.0 Kbps
    Maximum bit rate                         : 54.9 Kbps
    Channel(s)                               : 1 channel
    Channel positions                        : Front: C
    Sampling rate                            : 48.0 KHz / 24.0 KHz
    Compression mode                         : Lossy
    Delay relative to video                  : -3s 337ms
    Stream size                              : 45.5 MiB (9%)
    Encoded date                             : UTC 2012-05-27 03:48:43
    Tagged date                              : UTC 2012-05-27 03:48:47


















    Source:ReborN


    For Getting High Speed Download speeed Pls Purchase Premium From this Link And Support me By Providing More Quality Releases
    Code:
    http://www.filefactory.com/file/3ww4xqgjcdc9/n/UMI.mp4
    
    http://coraldrive.net/wyxj1snelpsc/UMI.mp4
    
    http://extabit.com/file/27b6d0lryimv6
    
    http://ryushare.com/dvbrxte900gh/UMI.mp4.html
    Single Link
    Code:
    http://turbobit.net/wepgjyqjpm7u.html

 

 

Posting Permissions

  • You may not post new threads
  • You may not post replies
  • You may not post attachments
  • You may not edit your posts
  •