Results 1 to 1 of 1
  1. #1
    New Arrivals
    Join Date
    May 2012
    Posts
    3

    Default Urumi (2012) - DVDRip - 2CD - XviD - MP3 - Team DON

    Follow us on Social Media





    Urumi (2012) - DVDRip - 2CD - XviD - MP3 - Team DON





    File Info
    Code:
    General
    Complete name                            : \Urumi (2012) - 2CD - XviD - MP3.avi
    Format                                   : AVI
    Format/Info                              : Audio Video Interleave
    File size                                : 1.27 GiB
    Duration                                 : 2h 13mn
    Overall bit rate mode                    : Variable
    Overall bit rate                         : 1 360 Kbps
    
    Video
    ID                                       : 0
    Format                                   : MPEG-4 Visual
    Format profile                           : Advanced [email protected]
    Format settings, BVOP                    : 2
    Format settings, QPel                    : No
    Format settings, GMC                     : No warppoints
    Format settings, Matrix                  : Default (H.263)
    Codec ID                                 : XVID
    Codec ID/Hint                            : XviD
    Duration                                 : 2h 13mn
    Bit rate                                 : 1 245 Kbps
    Width                                    : 672 pixels
    Height                                   : 288 pixels
    Display aspect ratio                     : 2.35:1
    Frame rate                               : 23.976 fps
    Color space                              : YUV
    Chroma subsampling                       : 4:2:0
    Bit depth                                : 8 bits
    Scan type                                : Progressive
    Compression mode                         : Lossy
    Bits/(Pixel*Frame)                       : 0.268
    Stream size                              : 1.16 GiB (92%)
    Writing library                          : XviD 1.2.1 (UTC 2008-12-04)
    
    Audio
    ID                                       : 1
    Format                                   : MPEG Audio
    Format version                           : Version 1
    Format profile                           : Layer 3
    Mode                                     : Joint stereo
    Mode extension                           : MS Stereo
    Codec ID                                 : 55
    Codec ID/Hint                            : MP3
    Duration                                 : 2h 13mn
    Bit rate mode                            : Variable
    Bit rate                                 : 103 Kbps
    Nominal bit rate                         : 112 Kbps
    Channel(s)                               : 2 channels
    Sampling rate                            : 44.1 KHz
    Compression mode                         : Lossy
    Stream size                              : 98.4 MiB (8%)
    Alignment                                : Aligned on interleaves
    Interleave, duration                     : 26 ms










    .........Single Link.......

    Code:
    http://www.filefactory.com/file/4mz2i9i41lg1/n/Ketthu_da--2cd--Team_DON.rar
    
    http://extabit.com/file/2a1pzydinj0fp/Ketthu da--2cd--Team DON.rar
    
    http://turbobit.net/btwdeyv47ao6/Ketthu da--2cd--Team DON.rar.html


    Disclamer :- All the My Post are Free Available On INTERNET Posted By Somebody Else, I'm Not VIOLATING Any

    COPYRIGHTED LAW. If Anything Is Against LAW, Please Notify So That It Can Be Removed..!









 

 

Posting Permissions

  • You may not post new threads
  • You may not post replies
  • You may not post attachments
  • You may not edit your posts
  •