Loading...
Results 1 to 1 of 1
  1. #1
    Hot Member www.desirulez.net
    Join Date
    Sep 2009
    Posts
    1,215

    Thumbs up Rowdy Rathore - Chinta Ta NEW KAREENA Freeplay Version (1080p HD Song) --DMF--(ExDRS)

    Follow us on Social Media








    Code:
    Format : MPEG-4
    Format profile : Base Media
    Codec ID : isom
    File size : 82.4 MiB
    Duration : 1mn 53s
    Overall bit rate : 6 083 Kbps
    Movie name : Rowdy Rathore - Chinta Ta NEW KAREENA Freeplay Version (1080p HD Song) --DMF-- (ExDRS)
    Writing application : Lavf52.108.0
    
    Video
    ID : 1
    Format : AVC
    Format/Info : Advanced Video Codec
    Format profile : [email protected]
    Format settings, CABAC : Yes
    Format settings, ReFrames : 4 frames
    Codec ID : avc1
    Codec ID/Info : Advanced Video Coding
    Duration : 1mn 53s
    Bit rate : 5 903 Kbps
    Width : 1 920 pixels
    Height : 820 pixels
    Display aspect ratio : 2.35:1
    Frame rate mode : Constant
    Frame rate : 25.000 fps
    Color space : YUV
    Chroma subsampling : 4:2:0
    Bit depth : 8 bits
    Scan type : Progressive
    Bits/(Pixel*Frame) : 0.150
    Stream size : 80.3 MiB (97%)
    Writing library : x264 core 115 r1947 b5a8ad7
    Encoding settings : cabac=1 / ref=3 / deblock=1:0:0 / analyse=0x3:0x113 / me=hex / subme=7 / psy=1 / psy_rd=1.00:0.00 / mixed_ref=1 / me_range=16 / chroma_me=1 / trellis=1 / 8x8dct=1 / cqm=0 / deadzone=21,11 / fast_pskip=1 / chroma_qp_offset=-2 / threads=6 / sliced_threads=0 / nr=0 / decimate=1 / interlaced=0 / bluray_compat=0 / constrained_intra=0 / bframes=3 / b_pyramid=2 / b_adapt=1 / b_bias=0 / direct=1 / weightb=1 / open_gop=0 / weightp=2 / keyint=250 / keyint_min=25 / scenecut=40 / intra_refresh=0 / rc_lookahead=40 / rc=2pass / mbtree=1 / bitrate=5903 / ratetol=1.0 / qcomp=0.60 / qpmin=0 / qpmax=51 / qpstep=4 / cplxblur=20.0 / qblur=0.5 / ip_ratio=1.40 / aq=1:1.00
    
    Audio
    ID : 2
    Format : AAC
    Format/Info : Advanced Audio Codec
    Format profile : LC
    Codec ID : 40
    Duration : 1mn 53s
    Bit rate mode : Constant
    Bit rate : 152 Kbps
    Channel(s) : 2 channels
    Channel positions : Front: L R
    Sampling rate : 44.1 KHz
    Compression mode : Lossy
    Delay relative to video : -2s 2ms
    Stream size : 2.06 MiB (2%)





    Code:
    http://www.filefactory.com/file/2mbdvx31etvl/n/Rowdy_Rathore_-_Chinta_Ta_NEW_KAREENA_Freeplay_Version_%281080p_HD_Song%29_--DMF--_%28ExDRS%29.mp4
    
    http://www.filefat.com/15q23gnr83v9
    
    http://www.mojofile.com/5tn8cb7gz6oq
    
    http://www.queenshare.com/cs3b8w9w6xzi




 

 

Posting Permissions

  • You may not post new threads
  • You may not post replies
  • You may not post attachments
  • You may not edit your posts
  •