Results 1 to 1 of 1
  1. #1
    Hot Member www.desirulez.net
    Join Date
    Sep 2011
    Posts
    2,158

    Default TNA.iMPACT.Wrestling.2012.05.24.WebRip.x264

    Follow us on Social Media





    TNA.iMPACT.Wrestling.2012.05.24.WebRip.x264



    INFO
    Code:
    General 
    Complete name iMPACT.Wrestling.2012.05.24.WebRip.x264.avi 
    Format : AVI 
    Format/Info : Audio Video Interleave 
    File size : 855 MiB 
    Duration : 1h 30mn 
    Overall bit rate : 1 317 Kbps 
    Writing application : Lavf52.61.0 
    
    Video 
    ID : 0 
    Format : MPEG-4 Visual 
    Format profile : [email protected] 
    Format settings, BVOP : No 
    Format settings, QPel : No 
    Format settings, GMC : No warppoints 
    Format settings, Matrix : Default (H.263) 
    Codec ID : XVID 
    Codec ID/Hint : XviD 
    Duration : 1h 30mn 
    Bit rate : 1 176 Kbps 
    Width : 640 pixels 
    Height : 320 pixels 
    Display aspect ratio : 16:9 
    Frame rate : 29.970 fps 
    Color space : YUV 
    Chroma subsampling : 4:2:0 
    Bit depth : 8 bits 
    Scan type : Progressive 
    Compression mode : Lossy 
    Bits/(Pixel*Frame) : 0.192 
    Stream size : 763 MiB (89%) 
    Writing library : XviD 1.2.1 (UTC 2008-12-04) 
    
    Audio 
    ID : 1 
    Format : MPEG Audio 
    Format version : Version 1 
    Format profile : Layer 3 
    Mode : Joint stereo 
    Mode extension : MS Stereo 
    Codec ID : 55 
    Codec ID/Hint : MP3 
    Duration : 1h 30mn 
    Bit rate mode : Constant 
    Bit rate : 128 Kbps 
    Channel(s) : 2 channels 
    Sampling rate : 44.1 KHz 
    Compression mode : Lossy 
    Stream size : 83.1 MiB (10%) 
    Alignment : Aligned on interleaves 
    Interleave, duration : 26 ms (0.78 video frame) 
    Writing library : LAME3.97 
    Type	TNA Impact
    DOWNLOAD
    Code:
    http://turbobit.net/mulzeeqsfca5/iMPACT.Wrestling.2012.05.24.WebRip.x264.avi.html
    
    http://www.filereactor.com/565ozylgbosz/iMPACT.Wrestling.2012.05.24.WebRip.x264.avi.html
    
    http://ul.to/c9s4m1pu/iMPACT.Wrestling.2012.05.24.WebRip.x264.avi
    DONT FORGET TO SAY THANKS

 

 

Posting Permissions

  • You may not post new threads
  • You may not post replies
  • You may not post attachments
  • You may not edit your posts
  •