Results 1 to 1 of 1
  1. #1
    Hot Member www.desirulez.net
    Join Date
    Sep 2009
    Posts
    1,215

    Thumbs up Tumhi Ho Bandhu - 1080p HD Official Song - ****tail [xDM Exclusive]

    Follow us on Social Media






    Code:
    General
    Unique ID                                : 223238856107683102324065001156704578948 (0xA7F23D61C0F683138629775F38ADAD84)
    Complete name                            : C:\Users\GHAR\Desktop\Tumhi Ho Bandhu - 1080p HD Official Song - ****tail [xDM Exclusive].mkv
    Format                                   : Matroska
    Format version                           : Version 2
    File size                                : 91.8 MiB
    Duration                                 : 2mn 11s
    Overall bit rate                         : 5 877 Kbps
    Movie name                               : xDM Exclusive
    Encoded date                             : UTC 2012-05-24 23:35:20
    Writing application                      : mkvmerge v5.2.1 ('A Far Off Place') built on Jan  2 2012 23:21:10
    Writing library                          : libebml v1.2.3 + libmatroska v1.3.0
    
    Video
    ID                                       : 2
    Format                                   : AVC
    Format/Info                              : Advanced Video Codec
    Format profile                           : [email protected]
    Format settings, CABAC                   : Yes
    Format settings, ReFrames                : 4 frames
    Muxing mode                              : Header stripping
    Codec ID                                 : V_MPEG4/ISO/AVC
    Duration                                 : 2mn 11s
    Bit rate                                 : 5 300 Kbps
    Width                                    : 1 920 pixels
    Height                                   : 812 pixels
    Display aspect ratio                     : 2.35:1
    Frame rate                               : 24.000 fps
    Color space                              : YUV
    Chroma subsampling                       : 4:2:0
    Bit depth                                : 8 bits
    Scan type                                : Progressive
    Bits/(Pixel*Frame)                       : 0.142
    Stream size                              : 80.0 MiB (87%)
    Title                                    : xDM | iC0N
    Writing library                          : x264 core 120 r2164 da19765
    Encoding settings                        : cabac=1 / ref=3 / deblock=1:-1:-1 / analyse=0x3:0x113 / me=hex / subme=7 / psy=1 / psy_rd=1.00:0.15 / mixed_ref=1 / me_range=16 / chroma_me=1 / trellis=1 / 8x8dct=1 / cqm=0 / deadzone=21,11 / fast_pskip=1 / chroma_qp_offset=-3 / threads=6 / sliced_threads=0 / nr=0 / decimate=1 / interlaced=0 / bluray_compat=0 / constrained_intra=0 / bframes=3 / b_pyramid=2 / b_adapt=1 / b_bias=0 / direct=1 / weightb=1 / open_gop=0 / weightp=2 / keyint=240 / keyint_min=24 / scenecut=40 / intra_refresh=0 / rc_lookahead=40 / rc=abr / mbtree=1 / bitrate=5300 / ratetol=1.0 / qcomp=0.60 / qpmin=0 / qpmax=69 / qpstep=4 / ip_ratio=1.40 / aq=1:1.00
    Language                                 : Hindi
    Default                                  : Yes
    Forced                                   : No
    
    Audio
    ID                                       : 1
    Format                                   : AC-3
    Format/Info                              : Audio Coding 3
    Mode extension                           : CM (complete main)
    Format settings, Endianness              : Big
    Muxing mode                              : Header stripping
    Codec ID                                 : A_AC3
    Duration                                 : 2mn 11s
    Bit rate mode                            : Constant
    Bit rate                                 : 640 Kbps
    Channel(s)                               : 6 channels
    Channel positions                        : Front: L C R, Side: L R, LFE
    Sampling rate                            : 48.0 KHz
    Bit depth                                : 16 bits
    Compression mode                         : Lossy
    Stream size                              : 10.00 MiB (11%)
    Title                                    : xDM | iC0N
    Language                                 : Hindi
    Default                                  : Yes
    Forced                                   : No
    [IMG]http://17.imagebam.com/download/hoFZ6azjmitCdmBJQTLenQ/19201/192008793/Tumhi%20Ho%20Bandhu%20-%201080p%20HD%20Official%20Song%20-%20****tail%20%5BxDM%20Exclusive%5D_s.jpg[/IMG]

    Code:
    http://www.filefactory.com/file/u83lz3pmwl1/n/Tumhi_Ho_Bandhu_-_1080p_HD_Official_Song_-_****tail_xDM_Exclusive_mkv
    
    http://turbobit.net/fgo84u2psyu5/Tumhi Ho Bandhu - 1080p HD Official Song - ****tail [xDM Exclusive].mkv.html
    
    http://www.queenshare.com/s4o6cz6aqhl5
    
    http://www.filefat.com/q6xewhr4n3u5
    
    http://www.mojofile.com/4362e83m0fax




 

 

Posting Permissions

  • You may not post new threads
  • You may not post replies
  • You may not post attachments
  • You may not edit your posts
  •