Results 1 to 1 of 1
  1. #1
    New Arrivals
    Join Date
    May 2012
    Posts
    3

    Question Sridhar (2012) 1CD DVDscr ( New Source) Tamil 700 MB Team DON

    Follow us on Social Media





    Sridhar (2012) 1CD DVDscr ( New Source) Tamil 700 MB Team DON






    File Info
    Complete name : Sridhar (2012) - 1CD - x264 - AAC
    Format : MPEG-4
    Format profile : Base Media
    Codec ID : isom
    File size : 685 MiB
    Duration : 2h 2mn
    Overall bit rate mode : Variable
    Overall bit rate : 784 Kbps
    Encoded date : UTC 2012-05-19 15:59:53
    Tagged date : UTC 2012-05-19 15:59:53

    Video
    ID : 1
    Format : AVC
    Format/Info : Advanced Video Codec
    Format profile : [email protected]
    Format settings, CABAC : Yes
    Format settings, ReFrames : 4 frames
    Codec ID : avc1
    Codec ID/Info : Advanced Video Coding
    Duration : 2h 2mn
    Bit rate : 718 Kbps
    Maximum bit rate : 3 256 Kbps
    Width : 608 pixels
    Height : 256 pixels
    Display aspect ratio : 2.40:1
    Frame rate mode : Constant
    Frame rate : 23.976 fps
    Color space : YUV
    Chroma subsampling : 4:2:0
    Bit depth : 8 bits
    Scan type : Progressive
    Bits/(Pixel*Frame) : 0.192
    Stream size : 627 MiB (92%)


    Audio

    ID : 2
    Format : AAC
    Format/Info : Advanced Audio Codec
    Format profile : HE-AAC / LC
    Codec ID : 40
    Duration : 2h 2mn
    Bit rate mode : Variable
    Bit rate : 63.0 Kbps
    Maximum bit rate : 68.7 Kbps
    Channel(s) : 1 channel
    Channel positions : Front: C
    Sampling rate : 48.0 KHz / 24.0 KHz
    Compression mode : Lossy
    Delay relative to video : -3s 337ms
    Stream size : 55.1 MiB (8%)
    Encoded date : UTC 2012-05-19 16:00:07
    Tagged date : UTC 2012-05-19 16:00:09





    Ripping Credits To Team DON when Ever Share The Rips.......




    .........Single Link.......


    .........Split Link.......


    Disclamer :- All the My Post are Free Available On INTERNET Posted By Somebody Else, I'm Not VIOLATING Any COPYRIGHTED LAW. If Anything Is Against LAW, Please Notify So That It Can Be Removed..!








 

 

Posting Permissions

  • You may not post new threads
  • You may not post replies
  • You may not post attachments
  • You may not edit your posts
  •