Results 1 to 1 of 1
  1. #1
    Hot Member www.desirulez.net
    Join Date
    Feb 2011
    Location
    Bulletproof IP
    Posts
    1,189

    Default Dangerous Ishq (2012) - 1/3 MC DVDScr - XviD - AC3 - Team IcTv Exclusive

    Follow us on Social Media





    Dangerous Ishq
    (2012)
    1/3 MC DVDScr - XviD - AC3 - Team IcTv Exclusive


    Movie & Rip info:

    Banner..............: Reliance Entertainment
    Release Date .......: 11 May 2012
    Genre ..............: Thriller
    Star Cast...........: Karishma Kapoor, Rajniesh Duggall
    Source..............: Intellect Clever Team IctV
    Language............: Hindi
    Format..............: Xvid
    Audio...............: AC3
    Runtime.............: 2hrs 10min

    All Credits To Team IcTv

    Code:
    General
    Complete name: DI2012_-_1-3-MC-DVDScr-XviD-AC3-Team-IcTv.avi
    Format : AVI
    Format/Info: Audio Video Interleave
    File size: 1.45 GiB
    Duration : 2h 10mn
    Overall bit rate : 1 584 Kbps
    
    Video
    ID : 0
    Format : MPEG-4 Visual
    Format profile : Advanced [email protected]
    Format settings, BVOP: 2
    Format settings, QPel: No
    Format settings, GMC : No warppoints
    Format settings, Matrix: Default (H.263)
    Codec ID : XVID
    Codec ID/Hint: XviD
    Duration : 2h 10mn
    Bit rate : 1 385 Kbps
    Width: 720 pixels
    Height : 304 pixels
    Display aspect ratio : 2.35:1
    Frame rate : 23.976 fps
    Color space: YUV
    Chroma subsampling : 4:2:0
    Bit depth: 8 bits
    Scan type: Progressive
    Compression mode : Lossy
    Bits/(Pixel*Frame) : 0.264
    Stream size: 1.27 GiB (87%)
    Writing library: XviD 1.2.1 (UTC 2008-12-04)
    
    Audio
    ID : 1
    Format : AC-3
    Format/Info: Audio Coding 3
    Mode extension : CM (complete main)
    Format settings, Endianness: Big
    Codec ID : 2000
    Duration : 2h 10mn
    Bit rate mode: Constant
    Bit rate : 192 Kbps
    Channel(s) : 2 channels
    Channel positions: Front: L R
    Sampling rate: 48.0 KHz
    Bit depth: 16 bits
    Compression mode : Lossy
    Stream size: 180 MiB (12%)
    Alignment: Aligned on interleaves
    Interleave, duration : 64 ms (1.53 video frames)
    Interleave, preload duration : 192 ms
    Title: VTS_01_1 T80 2_0ch 192Kbps DELAY 0ms
    Screen Shots


    Clickable thumbnail view















    All Credits Goes To Team IcTv (Thanks)

    Files Size: 750MB + 732.95MB = 1.45GB

    Code:
    http://turbobit.net/55l1k7rtoqpd/DI2012_-_1-3-MC-DVDScr-XviD-AC3-Team-IcTv.avi.001.html
    http://turbobit.net/3tet9rwpby0l/DI2012_-_1-3-MC-DVDScr-XviD-AC3-Team-IcTv.avi.002.html
    or
    http://extabit.com/file/27a3nhcfndha6/DI2012_-_1-3-MC-DVDScr-XviD-AC3-Team-IcTv.avi.001
    http://extabit.com/file/27a3nhcfnzs26/DI2012_-_1-3-MC-DVDScr-XviD-AC3-Team-IcTv.avi.002
    or
    http://www.filefactory.com/file/6p003wwnzyyh/n/DI2012_-_1-3-MC-DVDScr-XviD-AC3-Team-IcTv.avi.001
    http://www.filefactory.com/file/57j7ggwcvvzz/n/DI2012_-_1-3-MC-DVDScr-XviD-AC3-Team-IcTv.avi.002
    Re-upload Service is [ON] for 15 days

 

 

Posting Permissions

  • You may not post new threads
  • You may not post replies
  • You may not post attachments
  • You may not edit your posts
  •