Results 1 to 1 of 1
  1. #1
    Hot Member www.desirulez.net
    Join Date
    Feb 2011
    Location
    Bulletproof IP
    Posts
    1,189

    Default Vicky Donor (2012) - 1/5 DVDScr Rip - XviD - AC3 - 895MB - [TDT]

    Follow us on Social Media





    Vicky Donor (2012)
    1/5 DVDScr Rip - XviD - AC3 - 895MB - [TDT]






















    Code:
    General
    Complete name : VD2012_-_1-5-DVDScr-Rip-XviD-AC3-895MB-KF-TDT.avi
    IMDb : www.imdb.com/title/tt2317337/
    Format : AVI
    File size : 896 MiB
    Duration : 2h 1mn
    Overall bit rate : 1 034 Kbps
    Source : DvDScr @ Team ICTV.
    Ripper : KINGFISHER [~TDT~].
    
    Video
    
    Codec ID : XVID
    Duration : 2h 1mn
    Bit rate : 897 Kbps
    Width : 656 pixels
    Height : 336 pixels
    Display aspect ratio : 1.952
    Frame rate : 23.976 fps
    Bits/(Pixel*Frame) : 0.170
    Stream size : 777 MiB (87%)
    
    Audio
    
    Duration : 2h 1mn
    Bit rate mode : Constant
    Bit rate : 128 Kbps
    Channel(s) : 2 channels
    Sampling rate : 48.0 KHz
    Stream size : 111 MiB (12%)
    All Credits Goes To KINGFISHER @ TDT (Thanks)

    File Size: 895.62 MB

    Code:
    http://turbobit.net/6rabfpougej8/VD2012_-_1-5-DVDScr-Rip-XviD-AC3-895MB-KF-TDT.avi.html
    or
    http://extabit.com/file/27a3nhcjzg826/VD2012_-_1-5-DVDScr-Rip-XviD-AC3-895MB-KF-TDT.avi
    or
    http://www.filefactory.com/file/1fh96nf361a5/n/VD2012_-_1-5-DVDScr-Rip-XviD-AC3-895MB-KF-TDT.avi
    Re-upload Service is [ON] for 15 days

 

 

Posting Permissions

  • You may not post new threads
  • You may not post replies
  • You may not post attachments
  • You may not edit your posts
  •